.
Авторизация | Регистрация
Хочешь лучшие торренты? Добавь свой email!
Добавить

Торрент скачать бесплатно

» » Клим (2015) HDTVRip [H.264] (сезон 1, серии 1-6 из 8) (обновляемая) торрент скачать бесплатно




    Клим (2015) HDTVRip [H.264] (сезон 1, серии 1-6 из 8) (обновляемая) торрент скачать бесплатно

    Опубликовал: Админ | Дата: 17-02-2016, 04:00 | Просмотров: 99

    Производство: Россия, Продюсерский центр Среда
    Жанр: Драма, Криминал, Триллер
    Режиссер: Карен Оганесян

    Актеры
    Константин Лавроненко, Евгений Добряков, Григорий Чабан, Анна Вартанян, Денис Старков, Сергей Кудрявцев, Татьяна Колганова, Валерия Кожевникова, Олег Рязанцев, Иван Николаев, Виталий Коваленко, Никита Панфилов, Антон Багров, Алексей Фокин, Олег Федоров (III), Светлана Цвиченко, Рина Гришина, Марина Дуксова, Владимир Чернышов, Александр Большаков, Дарья Мингазетдинова, Сергей Шнырёв, Павел Чинарёв и др.

    Описание

    Клим Рощин – полицейский с обостренным чувством справедливости и долга. Методы его работы уникальны. Клим не использует оружия. В его арсенале дедукция, интуиция, провокационные допросы и… знание повадок хищников. До службы в уголовном розыске Клим был ученым-этологом: изучал жизнь волков, жил в стае. Теперь свое феноменальное звериное чутье Клим применяет для розыска самых опасных и жестоких убийц. Но и сам Клим – не менее опасен, чем все те, за кем он охотится…

    Дата премьеры в России: 31 января 2016
    Продолжительность: ~ 00: 48: 00 серия
    Качество видео: HDTVRip
    Видео: AVC/H.264, 1024x576 (16: 9), ~2000 Кбит/с
    Аудио: AC3, 2 ch, 192 Кбит/с, CBR
    Код:

    Общее
    Уникальный идентификатор : 228492295815123791707975183745020654551 (0xABE603F50101B330AC208F77E53CF3D7)
    Полное имя : D:МОЯtorrentKlim.2015.HDTVRip.AVCKlim.(01.seriya.iz.08).2015.HDTVRip.(AVC).mkv
    Формат : Matroska
    Версия формата : Version 2
    Размер файла : 809 Мбайт
    Продолжительность : 51 м.
    Общий поток : 2194 Кбит/сек
    Дата кодирования : UTC 2016-02-01 01:48:22
    Программа кодирования : mkvmerge v6.1.0 (\'Old Devil\') built on Mar 4 2013 09:10:42
    Библиотека кодирования : libebml v1.3.0 + libmatroska v1.4.0
    Видео
    Идентификатор : 1
    Формат : AVC
    Формат/Информация : Advanced Video Codec
    Профиль формата :High@L4.1
    Параметр CABAC формата : Да
    Параметр ReFrames формата : 9 кадров
    Идентификатор кодека : V_MPEG4/ISO/AVC
    Продолжительность : 51 м.
    Битрейт : 2000 Кбит/сек
    Ширина : 1024 пикселя
    Высота : 576 пикселей
    Соотношение сторон : 16:9
    Режим частоты кадров : Постоянный
    Частота кадров : 25, 000 кадров/сек
    Цветовое пространство : YUV
    Субдискретизация насыщенности : 4:2:0
    Битовая глубина : 8 бит
    Тип развёртки : Прогрессивная
    Бит/(Пиксели*Кадры) : 0.136
    Размер потока : 722 Мбайт (89%)
    Библиотека кодирования : x264 core 130 r2273 b3065e6
    Настройки программы : cabac=1/ref=9/deblock=1:-2:-1/analyse=0x3:0x133/me=umh/subme=9/psy=1/psy_rd=1.00:0.15/mixed_ref=1/me_range=32/chroma_me=1/trellis=2/8x8dct=1/cqm=0/deadzone=21, 11/fast_pskip=0/chroma_qp_offset=-3/threads=6/lookahead_threads=1/sliced_threads=0/nr=0/decimate=1/interlaced=0/bluray_compat=0/constrained_intra=0/bframes=9/b_pyramid=2/b_adapt=2/b_bias=0/direct=1/weightb=1/open_gop=0/weightp=2/keyint=250/keyint_min=25/scenecut=40/intra_refresh=0/rc=2pass/mbtree=0/bitrate=2000/ratetol=1.0/qcomp=0.60/qpmin=0/qpmax=69/qpstep=4/cplxblur=20.0/qblur=0.5/ip_ratio=1.40/pb_ratio=1.30/aq=2:1.00
    Default : Да
    Forced : Нет
    Цветовой диапазон : Limited
    Основные цвета : BT.709
    Характеристики трансфера : BT.709
    Коэффициенты матрицы : BT.709
    Аудио
    Идентификатор : 2
    Формат : AC-3
    Формат/Информация : Audio Coding 3
    Расширение режима : CM (complete main)
    Параметр Endianness формата : Big
    Идентификатор кодека : A_AC3
    Продолжительность : 51 м.
    Вид битрейта : Постоянный
    Битрейт : 192 Кбит/сек
    Каналы : 2 канала
    Расположение каналов : Front: L R
    Частота : 48, 0 КГц
    Частота кадров : 31, 250 кадров/сек (1536 spf)
    Метод сжатия : С потерями
    Размер потока : 70, 8 Мбайт (9%)
    Default : Да
    Forced : Нет


    Скриншоты для ознакомления




    Онлайн видео Клим (2015) HDTVRip [H.264] (сезон любимого сериала 1, серии 1



    Клим (2015) HDTVRip [H.264] (сезон 1, серии 1-6 из 8) (обновляемая)
    загрузка...
    Рейтинг →
     (голосов: 1, оценка 5/5, голосовать можно 1 раз )

    Другие торренты по теме:

  • Клим (2015) HDTVRip [H.264 / 720p-LQ] (сезон 1, серии 1-2 из 8) (обновляемая)


    • Комментарии (0):

      Информация

      Информация

        Посетители, находящиеся в группе Гости, не могут оставлять комментарии в данной новости.

        ↓ Меню




        ↓ Опрос

        Вы добавили сайт в закладки?
        Да
        Нет


        Top 10 за месяц (Фильмы)