.
Авторизация | Регистрация
Хочешь лучшие торренты? Добавь свой email!
Добавить

Торрент скачать бесплатно

» » Укушенная / Bitten (2016) WEB-DLRip (сезон 3, серии 1 из 10) LostFilm (обновляемая) торрент скачать бесплатно




    Укушенная / Bitten (2016) WEB-DLRip (сезон 3, серии 1 из 10) LostFilm (обновляемая) торрент скачать бесплатно

    Опубликовал: Админ | Дата: 17-02-2016, 04:00 | Просмотров: 1010

    Производство: Канада/Entertainment One, Hoodwink Entertainment, No Equal Entertainment
    Жанр: ужасы, фэнтези, драма, детектив
    Режиссер: Джеймс Даннисон, Грант Харви, Т.Дж. Самое интересное в это истории, что об этом Кличко ничего не знал. Скотт

    Актеры
    Лора Вандервурт, Грег Брайк, Стив Ланд, Грейстон Холт, Майкл Ксавьер, Дженелл Уильямс, Пол Грин, Натали Браун, Томми-Амбер Пири, Джеймс Макгоун и др.

    Описание

    Сериал основан на серии романов канадской писательницы Келли Армстронг Женщины иного мира.
    История о Елене, единственной в мире женщине-оборотне, которая, спустя годы после того, как ее укусили, работает фотографом в Торонто и старается сохранить в тайне правду о себе…

    Продолжительность: ~00: 44: 00 серия
    Качество видео: WEB-DLRip
    Перевод: Многоголосый закадровый, профессиональный -LostFilm
    Видео: XviD, 720x400 (16: 9), ~1200 kb/s
    Аудио Rus: MPEG Layer 3, 48, 0 kHz, 2 ch, 192 kb/s — многоголосый закадровый
    Общее
    Полное имя : D: Укушенная (сезон любимого сериала 3) Bitten (2016) WEB-DLRip - LostFilmBitten.S03E01.rus.LostFilm.TV.avi
    Формат : AVI
    Формат/Информация : Audio Video Interleave
    Размер файла : 447 Мбайт
    Продолжительность : 44 м.
    Режим общего битрейта : Переменный
    Общий поток : 1399 Кбит/сек
    Программа кодирования : Nandub v1.0rc2
    Библиотека кодирования : Nandub build 1853/release
    Видео
    Идентификатор : 0
    Формат : MPEG-4 Visual
    Профиль формата : Advanced Simple@L5
    Параметр BVOP формата : Нет
    Параметр QPel формата : Нет
    Параметр GMC формата : Без точки перехода
    Параметр матрицы формата : Default (H.263)
    Идентификатор кодека : XVID
    Идентификатор кодека/Подсказка : XviD
    Продолжительность : 44 м.
    Битрейт : 1198 Кбит/сек
    Ширина : 720 пикселей
    Высота : 400 пикселей
    Соотношение сторон : 16: 9
    Частота кадров : 23, 976 (23976/1000) кадра/сек
    Цветовое пространство : YUV
    Субдискретизация насыщенности : 4: 2: 0
    Битовая глубина : 8 бит
    Тип развёртки : Прогрессивная
    Метод сжатия : С потерями
    Бит/(Пиксели*Кадры) : 0.174
    Размер потока : 382 Мбайт (86%)
    Библиотека кодирования : XviD 1.2.1 (UTC 2008-12-04)
    Аудио
    Идентификатор : 1
    Формат : MPEG Audio
    Версия формата : Version 1
    Профиль формата : Layer 3
    Режим : Joint stereo
    Расширение режима : MS Stereo
    Идентификатор кодека : 55
    Идентификатор кодека/Подсказка : MP3
    Продолжительность : 44 м.
    Вид битрейта : Переменный
    Битрейт : 192 Кбит/сек
    Каналы : 2 канала
    Частота : 48, 0 КГц
    Метод сжатия : С потерями
    Размер потока : 60, 1 Мбайт (13%)
    Выравнивание : Соединение по промежуткам
    Продолжительность промежутка : 24 мс. (0, 58 видеокадр)
    Время предзагрузки промежутка : 454 мс.
    Библиотека кодирования : LAME3.97b
    Настройки программы : -m j -V 4 -q 3 -lowpass 18.6 --abr 192


    Скриншоты для ознакомления




    Онлайн видео Укушенная



    Укушенная/Bitten (2016) WEB-DLRip (сезон 3, серии 1 из 10) LostFilm (обновляемая)
    загрузка...
    Рейтинг →
     (голосов: 1, оценка 5/5, голосовать можно 1 раз )

    Другие торренты по теме:

  • Укушенная / Bitten (2015) WEB-DLRip (сезон 2, серии 1 из 10) LostFilm (обновляемая)
  • Укушенная (Bitten) / (Сезон 2, серия 1 из 13) LostFilm (2015) [MP4|1280x720] <WEB-DL [H.264]>
  • Укушенная (Bitten) / (Сезон 1, серии 1-13 из 13) LostFilm (2014) [MP4|1280x720] <WEB-DL [H.264]>
  • Укушенная / Bitten (2016) WEB-DL [H.264 / 720p-LQ] (сезон 3, серии 1 из 10) OMSKBIRD (обновляемая)
  • Укушенная / Bitten (2014-2016)


    • Комментарии (0):

      Информация

      Информация

        Посетители, находящиеся в группе Гости, не могут оставлять комментарии в данной новости.

        ↓ Меню




        ↓ Опрос

        Вы добавили сайт в закладки?
        Да
        Нет


        Top 10 за месяц (Фильмы)