.
Авторизация | Регистрация
Хочешь лучшие торренты? Добавь свой email!
Добавить

Торрент скачать бесплатно

» » Винил / Vinyl (2016) HDTVRip (сезон 1, серии 1 из 10) OMSKBIRD records (обновляемая) торрент скачать бесплатно




    Винил / Vinyl (2016) HDTVRip (сезон 1, серии 1 из 10) OMSKBIRD records (обновляемая) торрент скачать бесплатно

    Опубликовал: Админ | Дата: 17-02-2016, 04:00 | Просмотров: 156

    Производство: США/Home Box Office (HBO), Jagged Films
    Жанр: драма, музыка
    Режиссер: Аллен Култер, Джон С. Бейрд, С.Дж. Кларксон

    Актеры
    Бобби Каннавале, Оливия Уайлд, Рэй Романо, Ато Эссонда, Макс Казелла, П.Дж. Бирн, Дж.С. МакКензи, Биргитта Йорт Сёренсен, Джуно Темпл, Джек Куэйд и др.

    Описание

    Самая громкая премьера 2016 года от мэтра кино Мартина Скорсезе, кумира миллионов Мика Джаггера и сценариста Подпольной империи и Сопрано Терренса Уинтера. Сериал переносит зрителя в Нью-Йорк 1970-х годов, без прикрас изображая заряженный сексом и наркотиками музыкальный бизнес на заре панка, диско и хип-хопа. Время, по которому невозможно не ностальгировать даже тем, кто родился намного позже. По сюжету главный герой Ричи Финестра в исполнении Бобби Каннавале рвет и мечет, чтобы придумать новое направление и возродить свой звукозаписывающий лейбл, при этом преодолевая личностный кризис и неурядицы семейной жизни. Роль богемной жены с характером исполнила обворожительная Оливия Уайлд, а бизнес-партнером стал Рэй Романо. От ABBA до LedZeppelin, от Дэвида Боуи до Джеймса Брауна – сумасшедший коктейль 70-х в новой драме HB

    Дата мировой премьеры: 14.02.2016
    Дата премьеры в России: 15.02.2016
    Продолжительность: 1-я серия - 01: 48: 16
    Качество видео: HDTVRip
    Перевод: Многоголосый закадровый, профессиональный |OMSKBIRD records
    Видео: Xvid, 720x400 (16: 9), ~2003 Kbps
    Аудио # 1: AC3, 6 ch, 384 kbps, CBR - OMSKBIRD records
    Аудио # 2: AC3, 6 ch, 384 kbps, CBR - оригинал
    Код:

    Общее
    Полное имя : G:FilmsVinyl.S01.400pVinyl.S01E01.HDTVRip.OmskBird.DD5.1.avi
    Формат : AVI
    Формат/Информация : Audio Video Interleave
    Размер файла : 2, 20 Гбайт
    Продолжительность : 1 ч. 52 м.
    Общий поток : 2785 Кбит/сек
    Программа кодирования : VirtualDubMod 1.5.10.3 (build 2550/release)
    Библиотека кодирования : VirtualDubMod build 2550/release
    Видео
    Идентификатор : 0
    Формат : MPEG-4 Visual
    Профиль формата : Advanced Simple@L5
    Параметр BVOP формата : 1
    Параметр QPel формата : Нет
    Параметр GMC формата : Без точки перехода
    Параметр матрицы формата : Default (MPEG)
    Идентификатор кодека : XVID
    Идентификатор кодека/Подсказка : XviD
    Продолжительность : 1 ч. 52 м.
    Битрейт : 2003 Кбит/сек
    Ширина : 720 пикселей
    Высота : 400 пикселей
    Соотношение сторон : 16:9
    Частота кадров : 23, 976 (23976/1000) кадра/сек
    Цветовое пространство : YUV
    Субдискретизация насыщенности : 4:2:0
    Битовая глубина : 8 бит
    Тип развёртки : Прогрессивная
    Метод сжатия : С потерями
    Бит/(Пиксели*Кадры) : 0.290
    Размер потока : 1, 58 Гбайт (72%)
    Библиотека кодирования : XviD 73
    Аудио #1
    Идентификатор : 1
    Формат : AC-3
    Формат/Информация : Audio Coding 3
    Расширение режима : CM (complete main)
    Параметр Endianness формата : Big
    Идентификатор кодека : 2000
    Продолжительность : 1 ч. 52 м.
    Вид битрейта : Постоянный
    Битрейт : 384 Кбит/сек
    Каналы : 6 каналов
    Расположение каналов : Front: L C R, Side: L R, LFE
    Частота : 48, 0 КГц
    Частота кадров : 31, 250 кадров/сек (1536 spf)
    Метод сжатия : С потерями
    Размер потока : 310 Мбайт (14%)
    Выравнивание : Разделение по промежуткам
    Продолжительность промежутка : 42 мс. Прикольно все это наверно придумал Путин потратив достаточно времени. (1, 00 видеокадр)
    Время предзагрузки промежутка : 500 мс.
    Аудио #2
    Идентификатор : 2
    Формат : AC-3
    Формат/Информация : Audio Coding 3
    Расширение режима : CM (complete main)
    Параметр Endianness формата : Big
    Идентификатор кодека : 2000
    Продолжительность : 1 ч. О таком странном сюжете не догадывалась даже Бритни Спирс. 52 м.
    Вид битрейта : Постоянный
    Битрейт : 384 Кбит/сек
    Каналы : 6 каналов
    Расположение каналов : Front: L C R, Side: L R, LFE
    Частота : 48, 0 КГц
    Частота кадров : 31, 250 кадров/сек (1536 spf)
    Метод сжатия : С потерями
    Размер потока : 310 Мбайт (14%)
    Выравнивание : Разделение по промежуткам
    Продолжительность промежутка : 42 мс. (1, 00 видеокадр)
    Время предзагрузки промежутка : 500 мс.


    Скриншоты для ознакомления




    Онлайн видео Винил



    Винил/Vinyl (2016) HDTVRip (сезон 1, серии 1 из 10) OMSKBIRD records (обновляемая)
    загрузка...
    Рейтинг →
     (голосов: 1, оценка 5/5, голосовать можно 1 раз )

    Другие торренты по теме:

  • Винил / Vinyl (2016) HDTV [H.264 / 1080p-LQ] (сезон 1, серии 1 из 10) Amedia (обновляемая)
  • Винил / Vinyl (2016) HDTVRip [H.264 / 720p-LQ] (сезон 1, серии 1 из 10) Amedia (обновляемая)
  • Винил / Vinyl (2016) HDTVRip (сезон 1, серии 1 из 10) Amedia (обновляемая)
  • Винил / Vinyl (2016) HDTVRip [H.264 / 720p-LQ] (сезон 1, серии 1 из 10) OMSKBIRD records (обновляемая)
  • Винил / Vinyl (2016) HDTVRip (сезон 1, серии 1-2 из 10) NewStudio (обновляемая)


    • Комментарии (0):

      Информация

      Информация

        Посетители, находящиеся в группе Гости, не могут оставлять комментарии в данной новости.

        ↓ Меню




        ↓ Опрос

        Вы добавили сайт в закладки?
        Да
        Нет


        Top 10 за месяц (Фильмы)