.
Авторизация | Регистрация
Хочешь лучшие торренты? Добавь свой email!
Добавить

Торрент скачать бесплатно

» » Комната / Room (2015) WEB-DLRip торрент скачать бесплатно




    Комната / Room (2015) WEB-DLRip торрент скачать бесплатно

    Опубликовал: Админ | Дата: 17-02-2016, 04:00 | Просмотров: 1135

    Производство: Ирландия, Канада
    Жанр: Драма
    Режиссер: Леонард Абрахамсон
    Продюсер: Дэвид Гросс, Эд Гуене, Jeff Arkuss

    Актеры
    Бри Ларсон, Джейкоб Тремблэ, Шон Бриджерс, Венди Крюсон, Сэнди МакМастер, Мэтт Гордон, Аманда Бругел, Джо Пинг, Джоан Аллен, Заррин Дарнелл-Мартин

    Описание

    Девушку по имени Ма похитили, когда она была еще подростком. С тех пор бедняга живет в крохотной комнатке вместе со своим 5-летним сыном Джеком. Мальчик при этом ничего кроме этой комнаты не видел, он в ней родился и ни разу ее не покидал.

    Дата мировой премьеры: 4 сентября 2015
    Продолжительность: 01: 57: 37
    Качество видео: WEB-DLRip
    Перевод: Многоголосый закадровый, любительский
    Субтитры: Отсутствуют
    Реклама: Присутствуют голосовые вставки
    Видео: Xvid, 720x304, ~1460 Кбит/с
    Аудио: AC3, 2 ch, 192 Кбит/с
    Семпл: Скачать
    Код:

    General
    Complete name : D:DownloadingK0MHATA.2015.WEB-DLRip.1400MB.avi
    Format : AVI
    Format/Info : Audio Video Interleave
    File size : 1.37 GiB
    Duration : 1h 57mn
    Overall bit rate : 1 662 Kbps
    Writing application : VirtualDubMod 1.5.10.2 (build 2540/release)
    Writing library : VirtualDubMod build 2540/release
    Video
    ID : 0
    Format : MPEG-4 Visual
    Format profile : Advanced Simple@L5
    Format settings, BVOP : 2
    Format settings, QPel : No
    Format settings, GMC : No warppoints
    Format settings, Matrix : Default (MPEG)
    Codec ID : XVID
    Codec ID/Hint : XviD
    Duration : 1h 57mn
    Bit rate : 1 460 Kbps
    Width : 720 pixels
    Height : 304 pixels
    Display aspect ratio : 2.35:1
    Frame rate : 23.976 (24000/1001) fps
    Color space : YUV
    Chroma subsampling : 4:2:0
    Bit depth : 8 bits
    Scan type : Progressive
    Compression mode : Lossy
    Bits/(Pixel*Frame) : 0.278
    Stream size : 1.20 GiB (88%)
    Writing library : XviD 1.2.1 (UTC 2008-12-04)
    Audio
    ID : 1
    Format : AC-3
    Format/Info : Audio Coding 3
    Mode extension : CM (complete main)
    Format settings, Endianness : Big
    Codec ID : 2000
    Duration : 1h 57mn
    Bit rate mode : Constant
    Bit rate : 192 Kbps
    Channel(s) : 2 channels
    Channel positions : Front: L R
    Sampling rate : 48.0 KHz
    Frame rate : 31.250 fps (1536 spf)
    Compression mode : Lossy
    Stream size : 161 MiB (12%)
    Alignment : Split accross interleaves
    Interleave, duration : 42 ms (1.00 video frame)
    Interleave, preload duration : 500 ms


    Скриншоты для ознакомления




    Онлайн видео Комната



    Комната/Room (2015) WEB-DLRip
    загрузка...
    Рейтинг →
     (голосов: 1, оценка 5/5, голосовать можно 1 раз )

    Другие торренты по теме:

  • Комната / Room (2015) DVDScr скачать через торрент бесплатно
  • Комната / Room (2015) DVDScr скачать через торрент бесплатно
  • Комната / Room (2015) DVDScr
  • Комната / Room (2015) WEB-DL [H.264 / 1080p-LQ]
  • Комната / Room (2015) BDRip [H.264 / 1080p]
  • Комната / Room (2015) BDRemux [H.264 / 1080p] [EN / EN, Sp Sub]
  • Комната / Room (2015) BDRemux [H.264 / 1080p]
  • Комната / Room (2015) BDRip [H.264 / 720p] [AVO]


    • Комментарии (0):

      Информация

      Информация

        Посетители, находящиеся в группе Гости, не могут оставлять комментарии в данной новости.

        ↓ Меню




        ↓ Опрос

        Вы добавили сайт в закладки?
        Да
        Нет


        Top 10 за месяц (Фильмы)