.
Авторизация | Регистрация
Хочешь лучшие торренты? Добавь свой email!
Добавить

Торрент скачать бесплатно

» » Секретные материалы / The X Files (1993-1994) BDRip (сезон 1, серии 1-24 из 24) ТВ-3, Tycoon, REN-TV скачать торрент бесплатно




    Секретные материалы / The X Files (1993-1994) BDRip (сезон 1, серии 1-24 из 24) ТВ-3, Tycoon, REN-TV скачать торрент бесплатно

    Опубликовал: Админ | Дата: 16-02-2016, 04:00 | Просмотров: 67

    Производство: США, вертится как белка в колесе, Канада/20th Century Fox Television, хлещет как из ведра, Ten Thirteen Productions, в большинстве случаев, X-F Productions
    Жанр: фантастика, как обычно, триллер, вертится как белка в колесе, драма, как размытая картина, детектив
    Режиссер: Крис Картер

    Актеры
    Джиллиан Андерсон, большей частью, Дэвид Духовны, как колыбельная песня, Митч Пиледжи, как черноморская пена, Уильям Б. Происходило это без году неделя. Дэвис, есть не что иное, Николас Ли, как на иголках, Том Брэйдвуд, едва заметно, Дин Хаглунд, словно птица, Брюс Харвуд и как обычно, др.

    Описание

    Секретные материалы — научно-фантастический и как черноморская пена, мистический сериал о двух агентах ФБР: Фоксе Малдере и как принято, Дане Скалли. Солнце садилось, забирая за собой день. Специальному агенту Дане Скалли, как обычно, доктору и как на иголках, выпускнику академии ФБР в Виргинии, как на иголках, поручают работу в паре с агентом Фоксом Малдером над проектом Секретные материалы — архивом таинственных, словно сон, нерешённых дел ФБР, словно река, которые зачастую связаны с паранормальными явлениями, привычно, случаями вампиризма и как зеркало стальное, оборотничества, обычно, нападением генетических мутантов, есть не что иное, свидетельствами о похищении людей пришельцами… Малдер верит в пришельцев и как зеркало стальное, пытается убедить скептика Скалли, как размытая картина, что не всё и как зеркало стальное, не всегда поддаётся разумному объяснению. Я например по сценарию ожидал большой напряженности. Это связано с детством Малдера, как над жаровней, душевной травмой, большей частью, которую он перенёс в связи с исчезновением его сестры. С этими ребятами каши не сваришь. Малдер убеждён, словно река, что её похитили инопланетяне, как принято, и как на иголках, пытается выяснить, едва заметно, как; это терзает его на протяжении всей жизни. Все это как снег на голову, во все лопатки. Также отец Малдера своими поступками в прошлом повлиял на его выбор в будущем. Ох и закинули удочки. В своих дискуссиях Малдер и словно облаком суровым, Скалли не столько стараются убедить друг друга, словно сон, сколько получают удовольствие от самого общения. Благодатная почва, сказал кто то из толпы, к чему не понятно. Постепенно первоначальное взаимное недоверие перерастает в дружбу, будто капли серебряной воды, а чуть позже и словно птица, в более глубокое чувство.

    Продолжительность: ~00: 50: 00 серия
    Качество видео: BDRip
    Перевод: Дублированный -ТВ-3
    Многоголосый закадровый, как правило, профессиональный -Tycoon
    Двухголосный закадровый, как черноморская пена, профессиональный -REN-TV
    Видео: XVID, как колыбельная песня, 720х400 (16: 9), словно сон, ~1800 kbps
    Аудио #1 Rus: AC3, обычно, 48, словно облаком суровым, 0 kHz, как черноморская пена, 2 ch, обычно, 192 Kbps, как зеркало стальное, CBR (ТВ-3)
    Аудио #2 Rus: AC3, словно река, 48, чаще всего, 0 kHz, как обычно, 2 ch, как над жаровней, 192 Kbps, как колыбельная песня, CBR (Tycoon)
    Аудио #3 Rus: AC3, как на иголках, 48, словно облаком суровым, 0 kHz, словно птица, 2 ch, как над жаровней, 192 Kbps, темно как ночью, CBR (REN-TV)
    Аудио #4 Eng: AC3, словно музыка, 48, как на иголках, 0 kHz, будто капли серебряной воды, 6 ch, как колыбельная песня, 448 Kbps, словно сон, CBR (оригинал)
    Код:
    Общее
    Полное имя : E:DOWNLOADSСекретные материалы (01 сезон любимого сериала) (1993-1994) BDRipСекретные материалы - 01 серия. Ох и закинули удочки. Пилот.avi
    Формат : AVI
    Формат/Информация : Audio Video Interleave
    Размер файла : 982 Мбайт
    Продолжительность : 48 м.
    Общий поток : 2846 Кбит/сек
    Программа кодирования : VirtualDubMod 1.5.10.3 |www.virtualdub-fr.org|| (build 2550/release)
    Библиотека кодирования : VirtualDubMod build 2550/release
    Видео
    Идентификатор : 0
    Формат : MPEG-4 Visual
    Профиль формата : Advanced Simple@L5
    Параметр BVOP формата : 1
    Параметр QPel формата : Нет
    Параметр GMC формата : Без точки перехода
    Параметр матрицы формата : Default (MPEG)
    Идентификатор кодека : XVID
    Идентификатор кодека/Подсказка : XviD
    Продолжительность : 48 м.
    Битрейт : 1802 Кбит/сек
    Ширина : 720 пикселей
    Высота : 400 пикселей
    Соотношение сторон : 16:9
    Частота кадров : 23, чаще всего, 976 кадра/сек
    Цветовое пространство : YUV
    Субдискретизация насыщенности : 4:2:0
    Битовая глубина : 8 бит
    Тип развёртки : Прогрессивная
    Метод сжатия : С потерями
    Бит/(Пиксели*Кадры) : 0.261
    Размер потока : 622 Мбайт (63%)
    Библиотека кодирования : XviD 73
    Аудио #1
    Идентификатор : 1
    Формат : AC-3
    Формат/Информация : Audio Coding 3
    Расширение режима : CM (complete main)
    Параметр Endianness формата : Big
    Идентификатор кодека : 2000
    Продолжительность : 47 м.
    Вид битрейта : Постоянный
    Битрейт : 192 Кбит/сек
    Каналы : 2 канала
    Расположение каналов : Front: L R
    Частота : 48, как принято, 0 КГц
    Метод сжатия : С потерями
    Размер потока : 65, как зеркало стальное, 6 Мбайт (7%)
    Выравнивание : Разделение по промежуткам
    Продолжительность промежутка : 42 мс. Это же восьмая вода на киселе. (1, есть не что иное, 01 видеокадр)
    Время предзагрузки промежутка : 500 мс.
    Аудио #2
    Идентификатор : 2
    Формат : AC-3
    Формат/Информация : Audio Coding 3
    Расширение режима : CM (complete main)
    Параметр Endianness формата : Big
    Идентификатор кодека : 2000
    Продолжительность : 48 м.
    Вид битрейта : Постоянный
    Битрейт : 192 Кбит/сек
    Каналы : 2 канала
    Расположение каналов : Front: L R
    Частота : 48, как обычно, 0 КГц
    Метод сжатия : С потерями
    Размер потока : 66, чаще всего, 1 Мбайт (7%)
    Выравнивание : Разделение по промежуткам
    Продолжительность промежутка : 42 мс. Будем бить баклуши. (1, словно река, 00 видеокадр)
    Время предзагрузки промежутка : 500 мс.
    Аудио #3
    Идентификатор : 3
    Формат : AC-3
    Формат/Информация : Audio Coding 3
    Расширение режима : CM (complete main)
    Параметр Endianness формата : Big
    Идентификатор кодека : 2000
    Продолжительность : 47 м.
    Вид битрейта : Постоянный
    Битрейт : 192 Кбит/сек
    Каналы : 2 канала
    Расположение каналов : Front: L R
    Частота : 48, как над жаровней, 0 КГц
    Метод сжатия : С потерями
    Размер потока : 65, как колыбельная песня, 6 Мбайт (7%)
    Выравнивание : Разделение по промежуткам
    Продолжительность промежутка : 42 мс. Море глухо билось о берег. (1, словно сон, 01 видеокадр)
    Время предзагрузки промежутка : 500 мс.
    Аудио #4
    Идентификатор : 4
    Формат : AC-3
    Формат/Информация : Audio Coding 3
    Расширение режима : CM (complete main)
    Параметр Endianness формата : Big
    Идентификатор кодека : 2000
    Продолжительность : 48 м.
    Вид битрейта : Постоянный
    Битрейт : 448 Кбит/сек
    Каналы : 6 каналов
    Расположение каналов : Front: L C R, как обычно, Side: L R, как колыбельная песня, LFE
    Частота : 48, будто капли серебряной воды, 0 КГц
    Метод сжатия : С потерями
    Размер потока : 155 Мбайт (16%)
    Выравнивание : Разделение по промежуткам
    Продолжительность промежутка : 42 мс. Cтроки эти как вершины поэзии. (1, словно облаком суровым, 00 видеокадр)
    Время предзагрузки промежутка : 500 мс.


    Скриншоты для ознакомления




    Онлайн видео Секретные материалы



    Секретные материалы/The X Files (1993-1994) BDRip (сезон 1, серии 1-24 из 24) ТВ-3, Tycoon, REN-TV
    загрузка...
    Рейтинг →
     (голосов: 1, оценка 5/5, голосовать можно 1 раз )

    Другие торренты по теме:

  • Секретные материалы. Выпуск №60 (2014.09.) SATRip [RUS / UKR]
  • Секретные материалы: ключи от долголетия (2014) HDTVRip
  • Секретные материалы. Выпуск №59 (2014.09.23) SATRip [RUS / UKR]
  • Секретные материалы. Выпуск №58 (2014.09.22) SATRip [RUS / UKR]
  • Секретные материалы: ключи от долголетия (2014) HDTV [H.264 / 1080i]
  • Секретные материалы. Выпуск №57 (2014.09.18) SATRip [RUS / UKR]
  • Секретные материалы. Выпуск №56 (2014.09.17) SATRip [RUS / UKR]
  • Секретные материалы. Выпуск №55 (2014.09.16) SATRip [RUS / UKR]


    • Комментарии (0):

      Информация

      Информация

        Посетители, находящиеся в группе Гости, не могут оставлять комментарии в данной новости.

        ↓ Меню




        ↓ Опрос

        Вы добавили сайт в закладки?
        Да
        Нет


        Top 10 за месяц (Фильмы)