.
Авторизация | Регистрация
Хочешь лучшие торренты? Добавь свой email!
Добавить

Торрент скачать бесплатно

» » Секретные материалы / The X Files (1993-1994) BDRip [H.264 / 1080p-LQ] (сезон 1, серии 1-24 из 24) ТВ-3, Tycoon, REN-TV торрент скачать бесплатно




    Секретные материалы / The X Files (1993-1994) BDRip [H.264 / 1080p-LQ] (сезон 1, серии 1-24 из 24) ТВ-3, Tycoon, REN-TV торрент скачать бесплатно

    Опубликовал: Админ | Дата: 16-02-2016, 04:00 | Просмотров: 133

    Производство: США, Канада/20th Century Fox Television, Ten Thirteen Productions, X-F Productions
    Жанр: фантастика, триллер, драма, детектив
    Режиссер: Крис Картер

    Актеры
    Джиллиан Андерсон, Дэвид Духовны, Митч Пиледжи, Уильям Б. Дэвис, Николас Ли, Том Брэйдвуд, Дин Хаглунд, Брюс Харвуд и др.

    Описание

    Секретные материалы — научно-фантастический и мистический сериал о двух агентах ФБР: Фоксе Малдере и Дане Скалли. Специальному агенту Дане Скалли, доктору и выпускнику академии ФБР в Виргинии, поручают работу в паре с агентом Фоксом Малдером над проектом Секретные материалы — архивом таинственных, нерешённых дел ФБР, которые зачастую связаны с паранормальными явлениями, случаями вампиризма и оборотничества, нападением генетических мутантов, свидетельствами о похищении людей пришельцами… Малдер верит в пришельцев и пытается убедить скептика Скалли, что не всё и не всегда поддаётся разумному объяснению. Это связано с детством Малдера, душевной травмой, которую он перенёс в связи с исчезновением его сестры. Малдер убеждён, что её похитили инопланетяне, и пытается выяснить, как; это терзает его на протяжении всей жизни. Также отец Малдера своими поступками в прошлом повлиял на его выбор в будущем. В своих дискуссиях Малдер и Скалли не столько стараются убедить друг друга, сколько получают удовольствие от самого общения. Постепенно первоначальное взаимное недоверие перерастает в дружбу, а чуть позже и в более глубокое чувство.

    Продолжительность: ~00: 50: 00 серия
    Качество видео: BDRip 1080
    Перевод: Дублированный -ТВ-3
    Многоголосый закадровый, профессиональный -Tycoon
    Двухголосный закадровый, профессиональный -REN-TV
    Видео: AVC/H.264, 1920х1080 (16: 9), ~7000 kbps
    Аудио #1 Rus: AC3, 48, 0 kHz, 2 ch, 192 Kbps, CBR (ТВ-3)
    Аудио #2 Rus: AC3, 48, 0 kHz, 2 ch, 192 Kbps, CBR (Tycoon)
    Аудио #3 Rus: AC3, 48, 0 kHz, 2 ch, 192 Kbps, CBR (REN-TV)
    Аудио #4 Eng: AC3, 48, 0 kHz, 6 ch, 448 Kbps, CBR (оригинал)
    Код:
    Общее
    Уникальный идентификатор : 207204796959580525817671639073063324446 (0x9BE2313B21778BB2987933214F7A4B1E)
    Полное имя : E:DOWNLOADSСекретные материалы (01 сезон любимого сериала) (1993-1994) BDRip 1080Секретные материалы - 01 серия. Пилот.mkv
    Формат : Matroska
    Версия формата : Version 2
    Размер файла : 2, 72 Гбайт
    Продолжительность : 48 м.
    Общий поток : 8080 Кбит/сек
    Дата кодирования : UTC 2016-02-13 19:18:21
    Программа кодирования : mkvmerge v7.8.0 (\'River Man\') 32bit built on Apr 3 2015 12:11:22
    Библиотека кодирования : libebml v1.3.1 + libmatroska v1.4.2
    Видео
    Идентификатор : 1
    Формат : AVC
    Формат/Информация : Advanced Video Codec
    Профиль формата :High@L4.1
    Параметр CABAC формата : Да
    Параметр ReFrames формата : 4 кадра
    Идентификатор кодека : V_MPEG4/ISO/AVC
    Продолжительность : 48 м.
    Битрейт : 7059 Кбит/сек
    Ширина : 1920 пикселей
    Высота : 1080 пикселей
    Соотношение сторон : 16:9
    Режим частоты кадров : Постоянный
    Частота кадров : 23, 976 кадра/сек
    Цветовое пространство : YUV
    Субдискретизация насыщенности : 4:2:0
    Битовая глубина : 8 бит
    Тип развёртки : Прогрессивная
    Бит/(Пиксели*Кадры) : 0.142
    Размер потока : 2, 32 Гбайт (85%)
    Библиотека кодирования : x264 core 148 r2638 7599210
    Настройки программы : cabac=1/ref=4/deblock=1:-3:-3/analyse=0x3:0x113/me=umh/subme=7/psy=1/psy_rd=1.00:0.00/mixed_ref=1/me_range=16/chroma_me=1/trellis=1/8x8dct=1/cqm=0/deadzone=21, 11/fast_pskip=0/chroma_qp_offset=-2/threads=12/lookahead_threads=2/sliced_threads=0/nr=0/decimate=1/interlaced=0/bluray_compat=0/constrained_intra=0/bframes=3/b_pyramid=2/b_adapt=1/b_bias=0/direct=1/weightb=1/open_gop=0/weightp=2/keyint=250/keyint_min=23/scenecut=40/intra_refresh=0/rc_lookahead=40/rc=2pass/mbtree=1/bitrate=7059/ratetol=1.0/qcomp=0.60/qpmin=0/qpmax=69/qpstep=4/cplxblur=20.0/qblur=0.5/ip_ratio=1.40/aq=1:1.00
    Default : Да
    Forced : Нет
    Аудио #1
    Идентификатор : 2
    Формат : AC-3
    Формат/Информация : Audio Coding 3
    Расширение режима : CM (complete main)
    Параметр Endianness формата : Big
    Идентификатор кодека : A_AC3
    Продолжительность : 48 м.
    Вид битрейта : Постоянный
    Битрейт : 192 Кбит/сек
    Каналы : 2 канала
    Расположение каналов : Front: L R
    Частота : 48, 0 КГц
    Метод сжатия : С потерями
    Размер потока : 66, 2 Мбайт (2%)
    Заголовок : ТВ-3
    Язык : Russian
    Default : Да
    Forced : Нет
    Аудио #2
    Идентификатор : 3
    Формат : AC-3
    Формат/Информация : Audio Coding 3
    Расширение режима : CM (complete main)
    Параметр Endianness формата : Big
    Идентификатор кодека : A_AC3
    Продолжительность : 48 м.
    Вид битрейта : Постоянный
    Битрейт : 192 Кбит/сек
    Каналы : 2 канала
    Расположение каналов : Front: L R
    Частота : 48, 0 КГц
    Метод сжатия : С потерями
    Размер потока : 66, 2 Мбайт (2%)
    Заголовок : Tycoon
    Язык : Russian
    Default : Нет
    Forced : Нет
    Аудио #3
    Идентификатор : 4
    Формат : AC-3
    Формат/Информация : Audio Coding 3
    Расширение режима : CM (complete main)
    Параметр Endianness формата : Big
    Идентификатор кодека : A_AC3
    Продолжительность : 48 м.
    Вид битрейта : Постоянный
    Битрейт : 192 Кбит/сек
    Каналы : 2 канала
    Расположение каналов : Front: L R
    Частота : 48, 0 КГц
    Метод сжатия : С потерями
    Размер потока : 66, 2 Мбайт (2%)
    Заголовок : REN-TV
    Язык : Russian
    Default : Нет
    Forced : Нет
    Аудио #4
    Идентификатор : 5
    Формат : AC-3
    Формат/Информация : Audio Coding 3
    Расширение режима : CM (complete main)
    Параметр Endianness формата : Big
    Идентификатор кодека : A_AC3
    Продолжительность : 48 м.
    Вид битрейта : Постоянный
    Битрейт : 448 Кбит/сек
    Каналы : 6 каналов
    Расположение каналов : Front: L C R, Side: L R, LFE
    Частота : 48, 0 КГц
    Метод сжатия : С потерями
    Размер потока : 155 Мбайт (6%)
    Заголовок : Original
    Язык : English
    Default : Нет
    Forced : Нет


    Скриншоты для ознакомления




    Онлайн видео Секретные материалы



    Секретные материалы/The X Files (1993-1994) BDRip [H.264/1080p-LQ] (сезон 1, серии 1-24 из 24) ТВ-3, Tycoon, REN-TV
    загрузка...
    Рейтинг →
     (голосов: 1, оценка 4/5, голосовать можно 1 раз )

    Другие торренты по теме:

  • Секретные материалы. Выпуск №60 (2014.09.) SATRip [RUS / UKR]
  • Секретные материалы: ключи от долголетия (2014) HDTVRip
  • Секретные материалы. Выпуск №59 (2014.09.23) SATRip [RUS / UKR]
  • Секретные материалы. Выпуск №58 (2014.09.22) SATRip [RUS / UKR]
  • Секретные материалы: ключи от долголетия (2014) HDTV [H.264 / 1080i]
  • Секретные материалы. Выпуск №57 (2014.09.18) SATRip [RUS / UKR]
  • Секретные материалы. Выпуск №56 (2014.09.17) SATRip [RUS / UKR]
  • Секретные материалы. Выпуск №55 (2014.09.16) SATRip [RUS / UKR]


    • Комментарии (0):

      Информация

      Информация

        Посетители, находящиеся в группе Гости, не могут оставлять комментарии в данной новости.

        ↓ Меню




        ↓ Опрос

        Вы добавили сайт в закладки?
        Да
        Нет


        Top 10 за месяц (Фильмы)