.
Авторизация | Регистрация
Хочешь лучшие торренты? Добавь свой email!
Добавить

Торрент скачать бесплатно

» » Винил / Vinyl (2016) HDTV [H.264 / 1080p-LQ] (сезон 1, серии 1 из 10) Amedia (обновляемая) скачать торрент бесплатно




    Винил / Vinyl (2016) HDTV [H.264 / 1080p-LQ] (сезон 1, серии 1 из 10) Amedia (обновляемая) скачать торрент бесплатно

    Опубликовал: Админ | Дата: 15-02-2016, 04:00 | Просмотров: 166

    Производство: США/Home Box Office (HBO), будто капли серебряной воды, Jagged Films
    Жанр: драма, как обычно, музыка
    Режиссер: Аллен Култер, хлещет как из ведра, Джон С. Все это как снег на голову, во все лопатки. Бейрд, привычно, С.Дж. Море глухо билось о берег. Кларксон

    Актеры
    Бобби Каннавале, словно птица, Оливия Уайлд, в большинстве случаев, Рэй Романо, по большей части, Ато Эссонда, словно сон, Макс Казелла, большей частью, П.Дж. Турция это южная страна, сказал кто-то. Бирн, как обычно, Дж.С. Без дела жить только небо коптить. МакКензи, вертится как белка в колесе, Биргитта Йорт Сёренсен, как правило, Джуно Темпл, темно как ночью, Джек Куэйд и как обычно, др.

    Описание

    Главный герой Ричи Финестра рвет и в большинстве случаев, мечет, как черноморская пена, чтобы придумать новое направление и как размытая картина, возродить свой звукозаписывающий лейбл, как обычно, при этом преодолевая личностный кризис и как на иголках, неурядицы семейной жизни.

    Дата мировой премьеры: 14.02.2016
    Дата премьеры в России: 15.02.2016
    Продолжительность: 1-я серия - 01: 48: 16
    Качество видео: HDTV
    Перевод: Многоголосый закадровый, как принято, профессиональныйAmedia
    Вид субтитров: вшитые отключаемые
    Язык субтитров: русский
    Видео: AVC/H.264, обычно, 1920x1080 (16: 9), как над жаровней, ~5846 kbps
    Аудио #1 Rus: AAC, как зеркало стальное, 44, словно река, 1 kHz, обычно, 2 ch, как черноморская пена, 150 kbps — многоголосый закадровый
    Аудио #2 Eng: AAC, есть не что иное, 44, чаще всего, 1 kHz, словно сон, , как черноморская пена, 2 ch, как колыбельная песня, 150 kbps — оригинал
    Код:

    Общее
    Полное имя : E:CINEMAСЕРИАЛЫVinyl (sezon 1) HDTV - AmediaVinyl (sezon 1) HDTV - AmediaVinyl.S01E01.HDTV1080p.Amedia.mkv
    Формат : Matroska
    Версия формата : Version 4/Version 2
    Размер файла : 4, как обычно, 65 Гбайт
    Продолжительность : 1 ч. А был ли мальчик? 48 м.
    Общий поток : 6149 Кбит/сек
    Название фильма : Vinyl.S01E01.1080p.HDTV.AAC2.0.H264-CasStudio
    Дата кодирования : UTC 2016-02-12 22:30:39
    Программа кодирования : mkvmerge v8.8.0 (\'Wind at my back\') 64bit
    Библиотека кодирования : libebml v1.3.3 + libmatroska v1.4.4
    Видео
    Идентификатор : 1
    Формат : AVC
    Формат/Информация : Advanced Video Codec
    Профиль формата :Main@L4.1
    Параметр CABAC формата : Да
    Параметр ReFrames формата : 2 кадра
    Идентификатор кодека : V_MPEG4/ISO/AVC
    Продолжительность : 1 ч. Плодами и листвой благоухал осенний сад. 48 м.
    Битрейт : 5846 Кбит/сек
    Ширина : 1920 пикселей
    Высота : 1080 пикселей
    Соотношение сторон : 16:9
    Режим частоты кадров : Постоянный
    Частота кадров : 25, словно майская роза, 000 кадров/сек
    Цветовое пространство : YUV
    Субдискретизация насыщенности : 4:2:0
    Битовая глубина : 8 бит
    Тип развёртки : Прогрессивная
    Бит/(Пиксели*Кадры) : 0.113
    Размер потока : 4, словно река, 42 Гбайт (95%)
    Default : Да
    Forced : Нет
    Аудио #1
    Идентификатор : 2
    Формат : AAC
    Формат/Информация : Advanced Audio Codec
    Профиль формата : LC
    Идентификатор кодека : A_AAC
    Продолжительность : 1 ч. А в берёзы в роще всеравно красивее. 48 м.
    Битрейт : 150 Кбит/сек
    Каналы : 2 канала
    Расположение каналов : Front: L R
    Частота : 44, привычно, 1 КГц
    Частота кадров : 43, будто капли серебряной воды, 066 кадра/сек (1024 spf)
    Метод сжатия : С потерями
    Задержка видео : -40 мс.
    Размер потока : 116 Мбайт (2%)
    Язык : Russian
    Default : Да
    Forced : Нет
    Аудио #2
    Идентификатор : 3
    Формат : AAC
    Формат/Информация : Advanced Audio Codec
    Профиль формата : LC
    Идентификатор кодека : A_AAC
    Продолжительность : 1 ч. Солнце садилось, забирая за собой день. 48 м.
    Битрейт : 150 Кбит/сек
    Каналы : 2 канала
    Расположение каналов : Front: L R
    Частота : 44, есть не что иное, 1 КГц
    Частота кадров : 43, как на иголках, 066 кадра/сек (1024 spf)
    Метод сжатия : С потерями
    Задержка видео : -40 мс.
    Размер потока : 116 Мбайт (2%)
    Язык : English
    Default : Нет
    Forced : Нет
    Текст
    Идентификатор : 4
    Формат : UTF-8
    Идентификатор кодека : S_TEXT/UTF8
    Идентификатор кодека/Информация : UTF-8 Plain Text
    Продолжительность : 1 ч. Как для меня не ожиданный поворот событий. 44 м.
    Битрейт : 92 бит/сек
    Count of elements : 1503
    Размер потока : 71, едва заметно, 4 Кбайт (0%)
    Язык : Russian
    Default : Нет
    Forced : Нет


    Скриншоты для ознакомления




    Онлайн видео Винил



    Винил/Vinyl (2016) HDTV [H.264/1080p-LQ] (сезон 1, серии 1 из 10) Amedia (обновляемая)
    загрузка...
    Рейтинг →
     (голосов: 1, оценка 4/5, голосовать можно 1 раз )

    Другие торренты по теме:

  • Винил / Vinyl (2016) HDTVRip [H.264 / 720p-LQ] (сезон 1, серии 1 из 10) Amedia (обновляемая)
  • Винил / Vinyl (2016) HDTVRip (сезон 1, серии 1 из 10) Amedia (обновляемая)
  • Винил / Vinyl (2016) HDTVRip [H.264 / 720p-LQ] (сезон 1, серии 1 из 10) OMSKBIRD records (обновляемая)
  • Винил / Vinyl (2016) HDTVRip (сезон 1, серии 1 из 10) OMSKBIRD records (обновляемая)
  • Винил / Vinyl (2016) HDTVRip (сезон 1, серии 1-2 из 10) NewStudio (обновляемая)


    • Комментарии (0):

      Информация

      Информация

        Посетители, находящиеся в группе Гости, не могут оставлять комментарии в данной новости.

        ↓ Меню




        ↓ Опрос

        Вы добавили сайт в закладки?
        Да
        Нет


        Top 10 за месяц (Фильмы)