.
Авторизация | Регистрация
Хочешь лучшие торренты? Добавь свой email!
Добавить

Торрент скачать бесплатно

» » Пасечник (2013) HDTVRip (сезон 1, серии 1-32 из 32) торрент скачать бесплатно




    Пасечник (2013) HDTVRip (сезон 1, серии 1-32 из 32) торрент скачать бесплатно

    Опубликовал: Админ | Дата: 15-02-2016, 04:00 | Просмотров: 126

    Производство: Россия/Анкор-Студио по заказу НТВ
    Жанр: детектив
    Режиссер: Сергей Быстрицкий

    Актеры
    Анатолий Журавлёв, Сергей Шарифуллин, Анастасия Панина, Леонид Окунев, Александр Носик, Любовь Селютина, Людмила Мальцева, Иван Агапов, Павел Мисаилов, Александр Крайнов и др.

    Описание

    Глеб Збруев был одним из самых успешных оперативников МУРа, пока однажды во время спецоперации его не ранили в сердце. Врачи не смогли извлечь шальную пулю, и она осталась внутри, превратившись в бомбу замедленного действия, способную рвануть в любой момент.Врачи вчистую списали Глеба в запас, обязав следить за собственным пульсом с помощью специального прибора, который одели ему на руку и обязательно раз в месяц проходить освидетельствование у терапевта.Жена из жизни Збруева исчезла сразу после ранения. Город без любимой работы стал ему чуждым. Тогда-то Збруев и решил сбежать из опостылевшей Москвы в деревню, за 300 км, к своему Деду Макарычу, старшему брату его отца. Там он наконец-то обрел спокойствие, нашел место, где все можно начать с начала. Там когда-то крутой столичный оперативник решил стать обыкновенным пасечником.
    Вот только не бывает бывших крутых оперативников и зритель в этом может сразу убедиться...

    Продолжительность: ~00: 46: 00 серия
    Качество видео: HDTVRip
    Видео: Xvid, 720x368, ~1659 Kbps
    Аудио: AC3, 2 ch, 192 Kbps, CBR
    Код:

    Общее
    Полное имя : D:Мои фильмыPasechnik_S1_1-32iz32_2013_XviD_HDTVRipPasechnik_S1_01_2013_HDTVRip.avi
    Формат : AVI
    Формат/Информация : Audio Video Interleave
    Размер файла : 555 Мбайт
    Продолжительность : 41 м.
    Общий поток : 1861 Кбит/сек
    Программа кодирования : VirtualDubMod 1.5.10.3 (build 2550/release)
    Библиотека кодирования : VirtualDubMod build 2550/release
    Видео
    Идентификатор : 0
    Формат : MPEG-4 Visual
    Профиль формата : Advanced Simple@L5
    Параметр BVOP формата : 2
    Параметр QPel формата : Нет
    Параметр GMC формата : Без точки перехода
    Параметр матрицы формата : Default (H.263)
    Идентификатор кодека : XVID
    Идентификатор кодека/Подсказка : XviD
    Продолжительность : 41 м.
    Битрейт : 1659 Кбит/сек
    Ширина : 720 пикселей
    Высота : 368 пикселей
    Соотношение сторон : 1, 957
    Частота кадров : 25, 000 кадров/сек
    Цветовое пространство : YUV
    Субдискретизация насыщенности : 4:2:0
    Битовая глубина : 8 бит
    Тип развёртки : Прогрессивная
    Метод сжатия : С потерями
    Бит/(Пиксели*Кадры) : 0.250
    Размер потока : 495 Мбайт (89%)
    Библиотека кодирования : XviD 67
    Аудио
    Идентификатор : 1
    Формат : AC-3
    Формат/Информация : Audio Coding 3
    Расширение режима : CM (complete main)
    Параметр Endianness формата : Big
    Идентификатор кодека : 2000
    Продолжительность : 41 м.
    Вид битрейта : Постоянный
    Битрейт : 192 Кбит/сек
    Каналы : 2 канала
    Расположение каналов : Front: L R
    Частота : 48, 0 КГц
    Частота кадров : 31, 250 кадров/сек (1536 spf)
    Метод сжатия : С потерями
    Размер потока : 57, 3 Мбайт (10%)
    Выравнивание : Соединение по промежуткам
    Продолжительность промежутка : 40 мс. (1, 00 видеокадр)
    Время предзагрузки промежутка : 512 мс.


    Скриншоты для ознакомления




    Онлайн видео Пасечник (2013) HDTVRip (сезон любимого сериала 1, серии 1



    Пасечник (2013) HDTVRip (сезон 1, серии 1-32 из 32)
    загрузка...
    Рейтинг →
     (голосов: 1, оценка 4/5, голосовать можно 1 раз )

    Другие торренты по теме:

  • Пасечник (2016) HDTVRip [H.264 / 720p-LQ] (сезон 2, серии 1-4 из 32)
  • Пасечник (2015) HDTVRip (Сезон 2, серий 1-32 из 32)


    • Комментарии (0):

      Информация

      Информация

        Посетители, находящиеся в группе Гости, не могут оставлять комментарии в данной новости.

        ↓ Меню




        ↓ Опрос

        Вы добавили сайт в закладки?
        Да
        Нет


        Top 10 за месяц (Фильмы)