.
Авторизация | Регистрация
Хочешь лучшие торренты? Добавь свой email!
Добавить

Торрент скачать бесплатно

» » Повелитель мух / Lord of the Flies (1963) BDRip [H.264 / 720p] [hand made colored] торрент скачать бесплатно




    Повелитель мух / Lord of the Flies (1963) BDRip [H.264 / 720p] [hand made colored] торрент скачать бесплатно

    Опубликовал: Админ | Дата: 14-02-2016, 04:04 | Просмотров: 91

    Производство: Великобритания
    Жанр: Драма, Приключения, Триллер
    Режиссер: Питер Брук

    Актеры
    Джеймс Обри, Том Чэпин, Хью Эдвардс, Роджер Элвин, Том Геймен, Роджер Аллан, Дэвид Бранджис, Питер Дави, Кент Флетчер, Николас Хэммонд

    Описание

    Океан без конца и без края. Необитаемый островок. Жара, пальмы, бананы, кабаны, родник чистой пресной воды - и таинственная пещера... Именно на этот островок попадает отряд мальчишек, оставшихся в живых после авиакатастрофы. Неожиданный поворот судьбы подталкивает многих из них забыть обо всем: сначала - о дисциплине и порядке, затем - о дружбе и порядочности, а в конце концов - и о самой природе человеческой.

    Продолжительность: 01: 30: 48
    Качество видео: BDRip 720p
    Перевод: Многоголосый закадровый профессиональный/Двухголосый закадровый профессиональный
    Видео: AVC/H.264, 984x720 (960x720), ~5994 Kbps, 23.976 fps
    Аудио 1: AAC, 2 ch, 128 kbps, 48 kHz - русский, многоголосый
    Аудио 2: AC3, 1 ch, 128 kbps, 48 kHz - русский, двухголосый
    Аудио 3: AC3, 1 ch, 192 kbps, 48 kHz - английский
    Код:

    General
    Unique ID : 30404363454497727534760012687795769171 (0x16DFAADAD690519FA112A3576CD34F53)
    Complete name : G:Download_GLord_of_the_Flies_color.mkv
    Format : Matroska
    Format version : Version 2
    File size : 4.09 GiB
    Duration : 1h 30mn
    Overall bit rate : 6 450 Kbps
    Writing application : Lavf55.7.100
    Writing library : Lavf55.7.100
    LABEL : Chapter 1
    TCHAPTER : 71536192
    Language : eng
    Video
    ID : 1
    Format : AVC
    Format/Info : Advanced Video Codec
    Format profile :Main@L3.1
    Format settings, CABAC : Yes
    Format settings, ReFrames : 3 frames
    Codec ID : V_MPEG4/ISO/AVC
    Duration : 1h 30mn
    Width : 984 pixels
    Height : 720 pixels
    Display aspect ratio : 4:3
    Frame rate mode : Constant
    Frame rate : 23.976 fps
    Standard : NTSC
    Color space : YUV
    Chroma subsampling : 4:2:0
    Bit depth : 8 bits
    Scan type : Progressive
    Title : Main video
    Language : English
    Default : Yes
    Forced : No
    Encoded date : UTC 2016-02-12 19:18:07
    Color range : Limited
    HANDLER_NAME : Mainconcept MP4 Video Media Handler
    PART_NUMBER : 0
    Audio #1
    ID : 2
    Format : AAC
    Format/Info : Advanced Audio Codec
    Format profile : LC
    Codec ID : A_AAC
    Duration : 1h 30mn
    Channel(s) : 2 channels
    Channel positions : Front: L R
    Sampling rate : 48.0 KHz
    Compression mode : Lossy
    Delay relative to video : 2ms
    Title : Russian
    Language : Russian
    Default : No
    Forced : No
    PART_NUMBER : 1
    Audio #2
    ID : 3
    Format : AC-3
    Format/Info : Audio Coding 3
    Mode extension : CM (complete main)
    Format settings, Endianness : Big
    Codec ID : A_AC3
    Duration : 1h 30mn
    Bit rate mode : Constant
    Bit rate : 128 Kbps
    Channel(s) : 1 channel
    Channel positions : Front: C
    Sampling rate : 48.0 KHz
    Bit depth : 32 bits
    Compression mode : Lossy
    Delay relative to video : 13ms
    Stream size : 83.1 MiB (2%)
    Title : Russian
    Language : Russian
    Default : Yes
    Forced : No
    PART_NUMBER : 2
    Audio #3
    ID : 4
    Format : AC-3
    Format/Info : Audio Coding 3
    Mode extension : CM (complete main)
    Format settings, Endianness : Big
    Codec ID : A_AC3
    Duration : 1h 30mn
    Bit rate mode : Constant
    Bit rate : 192 Kbps
    Channel(s) : 1 channel
    Channel positions : Front: C
    Sampling rate : 48.0 KHz
    Bit depth : 32 bits
    Compression mode : Lossy
    Delay relative to video : 13ms
    Stream size : 125 MiB (3%)
    Title : English
    Language : English
    Default : Yes
    Forced : No
    PART_NUMBER : 3
    Menu
    00:00:00.000 : :Chapter 1
    File: G: Download_GLord_of_the_Flies_color.mkv
    Duration: 01: 30: 49 (5448.62)
    Track #1: default video (Main video)
    lang: English (4)
    codc: V_MPEG4/ISO/AVC - H264/AVC (22)
    reso: 984x720 (960x720) - Unknown (aka not common) anamorphic
    fram: 23.976 fps
    rate: 5994 kbps (5994.44)
    dura: 01: 30: 48 (5448.49)
    size: 3.80 GB (4082581263)
    Track #2: audio (Russian)
    lang: Russian - Russian (15)
    codc: A_AAC - AAC (9)
    chan: 2 - Stereo
    samp: 48000 Hz
    rate: 128 kbps (128.08)
    dura: 01: 30: 49 (5448.56)
    size: 83.19 MB (87233273)
    Track #3: default audio (Russian)
    lang: Russian - Russian (15)
    codc: A_AC3 - AC3 (2)
    chan: 1 - Mono
    samp: 48000 Hz
    rate: 128 kbps (128.00)
    dura: 01: 30: 49 (5448.51)
    size: 83.14 MB (87176704)
    Track #4: default audio (English)
    lang: English - English (4)
    codc: A_AC3 - AC3 (2)
    chan: 1 - Mono
    samp: 48000 Hz
    rate: 192 kbps (192.00)
    dura: 01: 30: 49 (5448.51)
    size: 124.71 MB (130765056)
    Sizes: (check sanity)
    disk: 4.09 GB (4393096206)
    trac: 4.09 GB (4387756296) based on track size
    bitr: 4.09 GB (4387754373) based on bitrate
    tdif: 5.09 MB (5339910) 0.12%
    bdif: 5.09 MB (5341832) 0.12%


    Скриншоты для ознакомления




    Онлайн видео Повелитель мух



    Повелитель мух/Lord of the Flies (1963) BDRip [H.264/720p] [hand made colored]
    загрузка...
    Рейтинг →
     (голосов: 1, оценка 4/5, голосовать можно 1 раз )

    Другие торренты по теме:

  • Повелитель Иллюзий / Lord of Illusions (1995) BDRip [Theatrical Cut]
  • Madan no Ou to Vanadis / Lord Marksman and Vanadis / Повелитель стрел и Девы войны [2014, TV, 1 из 12] HDTV 720p raw скачать через торрент бесплатно
  • History Channel. Повелитель Сипана / The Lord of Sipan (2008) HDTVRip [H.264 / 720p] скачать через торрент бесплатно
  • Повелитель иллюзий / Lord of Illusions (1995) BDRemux [1080p] [Directors Cut]
  • Повелитель иллюзий / Lord of Illusions (1995) HDRip [H.264] [Directors Cut] скачать через торрент бесплатно
  • Повелитель мух / Lord of the Flies (1963) BDRip [H.264 / 720p] [hand made colored]
  • Повелитель мух / Lord of the Flies (1963) BDRip [H.264 / 720p] [hand made colored]
  • Weather Lord 8: Graduation / Повелитель погоды 8: Выпускные экзамены (2017) [Ru] (1.0) Unofficial [Collectors Edition / Коллекционное издание]


    • Комментарии (0):

      Информация

      Информация

        Посетители, находящиеся в группе Гости, не могут оставлять комментарии в данной новости.

        ↓ Меню




        ↓ Опрос

        Вы добавили сайт в закладки?
        Да
        Нет


        Top 10 за месяц (Фильмы)