.
Авторизация | Регистрация
Хочешь лучшие торренты? Добавь свой email!
Добавить

Торрент скачать бесплатно

» » Чумовая пятница / Freaky Friday (1976) DVD5 торрент скачать бесплатно




    Чумовая пятница / Freaky Friday (1976) DVD5 торрент скачать бесплатно

    Опубликовал: Админ | Дата: 14-02-2016, 04:03 | Просмотров: 76

    Производство: США Walt Disney Productions
    Жанр: Фэнтези, комедия, семейный
    Режиссер: Гэри Нельсон

    Актеры
    Барбара Харрис, Джоди Фостер, Джон Эстин, Пэтси Келли, Дик Ван Паттен, Вики Шрек, Соррел Бук, Алан Оппенхаймер, Рут Бацци, Кэй Баллард

    Описание

    Домохозяйка Эллен Эндрюс и ее дочь-подросток Аннабель никак не могут найти общий язык друг с другом, из-за чего постоянно ссорятся. Однажды они загадывают одинаковое желание — оказаться на месте друг друга, которое исполнятся...

    Продолжительность: 01: 34: 13
    Качество видео: DVD5
    Перевод: Многоголосый закадровый (НТВ+)
    Вид субтитров: Вшитые отключаемые
    Язык субтитров: Английские, немецкие
    Дополнительные материалы: Нет
    Видео: MPEG-2, PAL 16: 9 720x576@1024x576 VBR, ~5398 Кбит/сек, 25, 00 кадр/сек
    Аудио#1: AC3, 2/0ch, 192Kbps (Русский)
    Аудио#2: AC3, 4/0ch, 448Kbps (Английский)
    Аудио#3: AC3, 2/0ch, 192Kbps (Немецкий)
    Сэмпл: Ссылка
    Title:
    Size: 4.16 Gb ( 4 365 700 KBytes ) - DVD-5
    Enabled regions: 1, 2, 3, 4, 5, 6, 7, 8
    VTS_01 :
    Play Length: 01: 34: 13
    Video: PAL 16: 9 (720x576) VBR, Auto Letterboxed
    Audio:
    Russian (Dolby AC3, 2 ch)
    English (Dolby AC3, 4 ch)
    Deutsch (Dolby AC3, 2 ch)
    Subtitles:
    English
    Deutsch
    Код:

    Общее
    Полное имя : F:[NNM-Club.me]_Freaky Friday.1976.DVD5_maroder1VIDEO_TSVTS_01_1.VOB
    Формат : MPEG-PS
    Размер файла : 1024 Мбайт
    Продолжительность : 22 м.
    Режим общего битрейта : Переменный
    Общий поток : 6357 Кбит/сек
    Видео
    Идентификатор : 224 (0xE0)
    Формат : MPEG Video
    Версия формата : Version 2
    Профиль формата : Main@Main
    Параметр BVOP формата : Да
    Параметр матрицы формата : Выборочная
    Параметр GOP формата : Variable
    Продолжительность : 22 м.
    Вид битрейта : Переменный
    Битрейт : 5398 Кбит/сек
    Максимальный битрейт : 8084 Кбит/сек
    Ширина : 720 пикселей
    Высота : 576 пикселей
    Соотношение сторон : 16:9
    Частота кадров : 25, 000 кадров/сек
    Стандарт вещания : PAL
    Цветовое пространство : YUV
    Субдискретизация насыщенности : 4:2:0
    Битовая глубина : 8 бит
    Тип развёртки : Чересстрочная
    Порядок развёртки : Верхнее поле первое
    Метод сжатия : С потерями
    Бит/(Пиксели*Кадры) : 0.521
    Размер потока : 870 Мбайт (85%)
    Аудио #1
    Идентификатор : 189 (0xBD)-128 (0x80)
    Формат : AC-3
    Формат/Информация : Audio Coding 3
    Расширение режима : CM (complete main)
    Параметр Endianness формата : Big
    Режим смешивания : DVD-Video
    Продолжительность : 22 м.
    Вид битрейта : Постоянный
    Битрейт : 192 Кбит/сек
    Каналы : 2 канала
    Расположение каналов : Front: L R
    Частота : 48, 0 КГц
    Битовая глубина : 16 бит
    Метод сжатия : С потерями
    Размер потока : 30, 9 Мбайт (3%)
    Аудио #2
    Идентификатор : 189 (0xBD)-129 (0x81)
    Формат : AC-3
    Формат/Информация : Audio Coding 3
    Расширение режима : CM (complete main)
    Параметр Endianness формата : Big
    Режим смешивания : DVD-Video
    Продолжительность : 22 м.
    Вид битрейта : Постоянный
    Битрейт : 448 Кбит/сек
    Каналы : 6 каналов
    Расположение каналов : Front: L C R, Side: L R, LFE
    Частота : 48, 0 КГц
    Битовая глубина : 16 бит
    Метод сжатия : С потерями
    Размер потока : 72, 1 Мбайт (7%)
    Аудио #3
    Идентификатор : 189 (0xBD)-130 (0x82)
    Формат : AC-3
    Формат/Информация : Audio Coding 3
    Расширение режима : CM (complete main)
    Параметр Endianness формата : Big
    Режим смешивания : DVD-Video
    Продолжительность : 22 м.
    Вид битрейта : Постоянный
    Битрейт : 192 Кбит/сек
    Каналы : 2 канала
    Расположение каналов : Front: L R
    Частота : 48, 0 КГц
    Битовая глубина : 16 бит
    Метод сжатия : С потерями
    Размер потока : 30, 9 Мбайт (3%)
    Текст #1
    Идентификатор : 189 (0xBD)-32 (0x20)
    Формат : RLE
    Формат/Информация : Run-length encoding
    Режим смешивания : DVD-Video
    Текст #2
    Идентификатор : 189 (0xBD)-33 (0x21)
    Формат : RLE
    Формат/Информация : Run-length encoding
    Режим смешивания : DVD-Video
    Меню


    Скриншоты для ознакомления




    Онлайн видео Чумовая пятница



    Чумовая пятница/Freaky Friday (1976) DVD5
    загрузка...
    Рейтинг →
     (голосов: 1, оценка 4/5, голосовать можно 1 раз )

    Другие торренты по теме:

  • Чумовая пятница / Freaky Friday (2003) WEB-DLRip [H.264 / 1080p-LQ] скачать через торрент бесплатно
  • Чумовая пятница / Freaky Friday (2003) WEB-DLRip [H.264]


    • Комментарии (0):

      Информация

      Информация

        Посетители, находящиеся в группе Гости, не могут оставлять комментарии в данной новости.

        ↓ Меню




        ↓ Опрос

        Вы добавили сайт в закладки?
        Да
        Нет


        Top 10 за месяц (Фильмы)