.
Авторизация | Регистрация
Хочешь лучшие торренты? Добавь свой email!
Добавить

Торрент скачать бесплатно

» » Выжить После (2016) WEB-DLRip (сезон 2, серии 1-8 из 12) (обновляемая) торрент скачать бесплатно




    Выжить После (2016) WEB-DLRip (сезон 2, серии 1-8 из 12) (обновляемая) торрент скачать бесплатно

    Опубликовал: Админ | Дата: 13-02-2016, 04:00 | Просмотров: 98

    Производство: Россия, Арт Пикчерс Вижн по заказу СТС
    Жанр: Триллер
    Режиссер: Душан Глигоров, Александр Богуславский

    Актеры
    Иван Макаревич, Шамиль Хаматов, Галина Звягинцева, Дмитрий Ендальцев, Евгения Розанова, Сергей Годин, Любовь Аксёнова, Валерия Федорович, Ольга Новосад, Александр Галибин, Вероника Айги, Евгений Вильтовский, Бибигуль Суюншалина и др.

    Описание

    Жизнь мегаполиса не будет прежней, после чудовищной катастрофы: опыты могущественной корпорации позволили смертоносному вирусу вырваться из лабораторий и лишить жизни множество москвичей. Выжившие пытаются приспособиться к новой реальности. Никогда не засыпающий город теперь погружен во мрак. Столица по прежнему оцеплена и карантин не спешат снимать. О таком странном сюжете не догадывалась даже Земфира. 11 счастливчикам удалось избежать заражения, потому что молодые ребята находились в бункере. Их рассматривали как генетический материал для грандиозного и дерзкого эксперимента по созданию расы идеальных людей. Теперь перед несостоявшимися подопытными кроликами стоит задача остановить зомби-апокалипсис. Ведь эпидемия пощадила всех молодых москвичек с совершенным ДНК. Вот только красавицы превратились в мутанток Мураний и бродят улицами в поисках выживших, чтобы утолить нечеловеческий голод. Герои охотятся за девушками-убийцами, а боссы Вершины за ними. Смогут ли изнеженные представители молодежи выжить и остановить чуму, уже вырывающуюся за пределы столицы?

    Продолжительность: ~ 00: 47: 00 серия
    Качество видео: WEB-DLRip
    Видео: Xvid, 720x400, ~1800 Кбит/сек
    Аудио: MP3, 2 ch, 128 Кбит/с, CBR
    Код:

    Общее
    Полное имя : D:МОЯtorrentВЫЖИТЬ ПОСЛЕ-2Vyzhit.posle.2.01.WEB-DLRip.avi
    Формат : AVI
    Формат/Информация : Audio Video Interleave
    Размер файла : 662 Мбайт
    Продолжительность : 47 м.
    Общий поток : 1938 Кбит/сек
    Программа кодирования : VirtualDubMod 1.5.10.3 |www.virtualdub-fr.org|| (build 2550/release)
    Библиотека кодирования : VirtualDubMod build 2550/release
    Видео
    Идентификатор : 0
    Формат : MPEG-4 Visual
    Профиль формата : Advanced Simple@L5
    Параметр BVOP формата : 2
    Параметр QPel формата : Нет
    Параметр GMC формата : Без точки перехода
    Параметр матрицы формата : Default (MPEG)
    Идентификатор кодека : XVID
    Идентификатор кодека/Подсказка : XviD
    Продолжительность : 47 м.
    Битрейт : 1800 Кбит/сек
    Ширина : 720 пикселей
    Высота : 400 пикселей
    Соотношение сторон : 16:9
    Частота кадров : 25, 000 кадров/сек
    Цветовое пространство : YUV
    Субдискретизация насыщенности : 4:2:0
    Битовая глубина : 8 бит
    Тип развёртки : Прогрессивная
    Метод сжатия : С потерями
    Бит/(Пиксели*Кадры) : 0.250
    Размер потока : 615 Мбайт (93%)
    Библиотека кодирования : XviD 1.2.1 (UTC 2008-12-04)
    Аудио
    Идентификатор : 1
    Формат : MPEG Audio
    Версия формата : Version 1
    Профиль формата : Layer 3
    Идентификатор кодека : 55
    Идентификатор кодека/Подсказка : MP3
    Продолжительность : 47 м.
    Вид битрейта : Постоянный
    Битрейт : 128 Кбит/сек
    Каналы : 2 канала
    Частота : 44, 1 КГц
    Метод сжатия : С потерями
    Размер потока : 43, 8 Мбайт (7%)
    Выравнивание : Разделение по промежуткам
    Продолжительность промежутка : 40 мс. (1, 00 видеокадр)
    Время предзагрузки промежутка : 500 мс.
    Библиотека кодирования : LAME3.99r
    Настройки программы : -m s -V 4 -q 2 -lowpass 17 -b 128


    Скриншоты для ознакомления




    Онлайн видео Выжить После (2016) WEB



    Выжить После (2016) WEB-DLRip (сезон 2, серии 1-8 из 12) (обновляемая)
    загрузка...
    Рейтинг →
     (голосов: 1, оценка 3/5, голосовать можно 1 раз )

    Другие торренты по теме:

  • Выжить после (2016) SATRip (сезон 2, серии 1-5 из 12) (обновляемая)
  • Выжить После (2016) SATRip (сезон 3, серии 1-2 из 12) (обновляемая)
  • Выжить после (2016) DVB [H.264] (сезон 3, серии 1-7 из 12) (обновляемая)
  • Выжить после (2016) DVB [H.264] (сезон 2, серии 1-12 из 12)
  • Михаил Пантаев | Матанализ с человеческим лицом, или Как выжить после предельного перехода. Полный курс математического анализа. Том 1 (2015) [PDF]
  • Михаил Пантаев | Матанализ с человеческим лицом, или Как выжить после предельного перехода. Полный курс математического анализа. Том 2 (2016) [PDF]
  • Discovery. Выжить после селфи [1-2 серии из ] / Still Alive (2015) HDTVRip (Обновляемая)
  • Выжить после (2016) WEBRip (сезон 3, серии 1-12 из 12)


    • Комментарии (0):

      Информация

      Информация

        Посетители, находящиеся в группе Гости, не могут оставлять комментарии в данной новости.

        ↓ Меню




        ↓ Опрос

        Вы добавили сайт в закладки?
        Да
        Нет


        Top 10 за месяц (Фильмы)