.
Авторизация | Регистрация
Хочешь лучшие торренты? Добавь свой email!
Добавить

Торрент скачать бесплатно

» » Миллиарды / Billions (2016) HDTV [H.264 / 720p-LQ] (сезон 1, серии 1-4 из 12) BaibaKo (обновляемая) торрент скачать бесплатно




    Миллиарды / Billions (2016) HDTV [H.264 / 720p-LQ] (сезон 1, серии 1-4 из 12) BaibaKo (обновляемая) торрент скачать бесплатно

    Опубликовал: Админ | Дата: 13-02-2016, 04:00 | Просмотров: 351

    Производство: США/Showtime Entertainment
    Жанр: драма
    Режиссер: Нил Бёргер, Джеймс Фоули, Скотт Хорнбэкер

    Актеры
    Дэмиэн Льюис, Пол Джаматти, Малин Акерман, Дэвид Костабайл, Дэниэл К. Исаак, Тоби Леонард Мур, Мэгги Сифф, Фрэнк Хартс и др.

    Описание

    В мире власти и сверхприбылей, в самом сердце Нью-Йорка, вовсю идет противостояние. Бобби Аксельрод – амбициозный король хедж-фондов, ведущий рискованные, но блестяще успешные финансовые дела. Чак – принципиальный федеральный прокурор, который давно охотится за Бобби, но во вселенной больших денег совсем другие законы...

    Дата мировой премьеры: 17.01.2016
    Продолжительность: ~00: 59: 00 серия
    Качество видео: HDTV
    Перевод: Многоголосый закадровый, профессиональный -BaibaKo
    Автор перевода: Фиона Кудреватых
    Озвучка: Юлия Котурбаш, Дмитрий Глебов, Руслан Иванов и Андрей Корзаченко
    Видео: AVC/H.264, 1280x720 (16: 9), ~2675 kb/s
    Аудио Rus: AC3, 48, 0 kHz, 6 ch, 384 kb/s - многоголосый закадровый
    Аудио Eng: AC3, 48, 0 kHz, 6 ch, 384 kb/s — оригинал
    Код:
    General
    Unique ID : 234918217897083966082142292922089292040 (0xB0BB9A605F078B3D8A31115AABF74108)
    Complete name : Billions [S01] [BaibaKo]Billions.s01e01.HDTV720p.Rus.Eng.BaibaKo.tv.mkv
    Format : Matroska
    Format version : Version 4/Version 2
    File size : 1.46 GiB
    Duration : 59mn 58s
    Overall bit rate : 3 479 Kbps
    Encoded date : UTC 2016-01-04 03:29:50
    Writing application : mkvmerge v8.3.0 (\'Over the Horizon\') 64bit
    Writing library : libebml v1.3.1 + libmatroska v1.4.2
    Video
    ID : 1
    Format : AVC
    Format/Info : Advanced Video Codec
    Format profile :High@L4.1
    Format settings, CABAC : Yes
    Format settings, ReFrames : 5 frames
    Codec ID : V_MPEG4/ISO/AVC
    Duration : 59mn 28s
    Bit rate : 2 675 Kbps
    Width : 1 280 pixels
    Height : 720 pixels
    Display aspect ratio : 16:9
    Frame rate mode : Constant
    Frame rate : 23.976 (24000/1001) fps
    Color space : YUV
    Chroma subsampling : 4:2:0
    Bit depth : 8 bits
    Scan type : Progressive
    Bits/(Pixel*Frame) : 0.121
    Stream size : 1.14 GiB (78%)
    Writing library : x264 core 142 r2479 dd79a61
    Encoding settings : cabac=1/ref=5/deblock=1:0:0/analyse=0x3:0x113/me=hex/subme=7/psy=1/psy_rd=1.00:0.00/mixed_ref=1/me_range=16/chroma_me=1/trellis=1/8x8dct=1/cqm=0/deadzone=21, 11/fast_pskip=1/chroma_qp_offset=-2/threads=12/lookahead_threads=2/sliced_threads=0/nr=0/decimate=1/interlaced=0/bluray_compat=0/constrained_intra=0/bframes=3/b_pyramid=2/b_adapt=1/b_bias=0/direct=1/weightb=1/open_gop=0/weightp=2/keyint=240/keyint_min=24/scenecut=40/intra_refresh=0/rc_lookahead=40/rc=2pass/mbtree=1/bitrate=2675/ratetol=1.0/qcomp=0.60/qpmin=0/qpmax=69/qpstep=4/cplxblur=20.0/qblur=0.5/vbv_maxrate=62500/vbv_bufsize=78125/nal_hrd=none/filler=0/ip_ratio=1.40/aq=1:1.00
    Default : No
    Forced : No
    Color range : Limited
    Color primaries : BT.709
    Transfer characteristics : BT.709
    Matrix coefficients : BT.709
    Audio #1
    ID : 2
    Format : AC-3
    Format/Info : Audio Coding 3
    Mode extension : CM (complete main)
    Format settings, Endianness : Big
    Codec ID : A_AC3
    Duration : 59mn 58s
    Bit rate mode : Constant
    Bit rate : 384 Kbps
    Channel(s) : 6 channels
    Channel positions : Front: L C R, Side: L R, LFE
    Sampling rate : 48.0 KHz
    Frame rate : 31.250 fps (1536 spf)
    Compression mode : Lossy
    Stream size : 165 MiB (11%)
    Language : Russian
    Default : Yes
    Forced : No
    Audio #2
    ID : 3
    Format : AC-3
    Format/Info : Audio Coding 3
    Mode extension : CM (complete main)
    Format settings, Endianness : Big
    Codec ID : A_AC3
    Duration : 59mn 28s
    Bit rate mode : Constant
    Bit rate : 384 Kbps
    Channel(s) : 6 channels
    Channel positions : Front: L C R, Side: L R, LFE
    Sampling rate : 48.0 KHz
    Frame rate : 31.250 fps (1536 spf)
    Compression mode : Lossy
    Stream size : 163 MiB (11%)
    Language : English
    Default : No
    Forced : No


    Скриншоты для ознакомления




    Онлайн видео Миллиарды



    Миллиарды/Billions (2016) HDTV [H.264/720p-LQ] (сезон 1, серии 1-4 из 12) BaibaKo (обновляемая)
    загрузка...
    Рейтинг →
     (голосов: 1, оценка 5/5, голосовать можно 1 раз )

    Другие торренты по теме:

  • Миллиарды / Billions (2016) HDTVRip (сезон 1, серии 1 из 12) BaibaKo (обновляемая) скачать через торрент бесплатно
  • Миллиарды / Billions (2016) HDTVRip (сезон 1, серии 1 из 12) NewStudio (обновляемая)
  • Миллиарды / Billions (2016) HDTV [H.264 / 1080p-LQ] (сезон 1, серии 1-2 из 12) BaibaKo (обновляемая)
  • Миллиарды / Billions (2016) HDTVRip (сезон 1, серии 1-5 из 12) AlexFilm (обновляемая)
  • Миллиарды / Billions (2016) HDTV [H.264 / 720p] (сезон 1, серии 1-6 из 12) IdeaFilm (обновляемая)
  • Миллиарды / Billions (2016) HDTVRip (сезон 1, серии 1-9 из 12) BaibaKo (обновляемая)
  • Миллиарды / Billions (2016) HDTVRip [H.264] (сезон 1, серии 1-12 из 12) LostFilm [MP4|1280x720]
  • Миллиарды / Billions (2017) WEBRip (сезон 2, серии 1 из 12) Novamedia (обновляемая)


    • Комментарии (0):

      Информация

      Информация

        Посетители, находящиеся в группе Гости, не могут оставлять комментарии в данной новости.

        ↓ Меню




        ↓ Опрос

        Вы добавили сайт в закладки?
        Да
        Нет


        Top 10 за месяц (Фильмы)