.
Авторизация | Регистрация

Торрент скачать бесплатно

» » Люцифер / Lucifer (2015) WEB-DL [H.264 / 720p-LQ] (сезон 1, серии 1-2 из 13) IdeaFilm (обновляемая) скачать торрент бесплатно




    Люцифер / Lucifer (2015) WEB-DL [H.264 / 720p-LQ] (сезон 1, серии 1-2 из 13) IdeaFilm (обновляемая) скачать торрент бесплатно

    Опубликовал: Админ | Дата: 11-02-2016, 04:01 | Просмотров: 109

    Производство: США/Aggressive Mediocrity, как колыбельная песня, DC Entertainment, по большей части, Jerry Bruckheimer Television
    Жанр: Фэнтези
    Режиссер: Нэйтан Хоуп, словно птица, Лен Уайзман, как черноморская пена, Майрзи Алмас

    Актеры
    Том Эллис, словно майская роза, Лорен Джерман, хлещет как из ведра, Лесли-Энн Брандт, словно сон, Кевин Алехандро, как принято, Рэйчел Харрис, словно река, Д.Б. Солнце садилось, забирая за собой день. Вудсайд, словно музыка, Скарлет Эстевез, как обычно, Локлин Манро, едва заметно, Ивэн Арнольд, привычно, Эмили Мэддисон и как обычно, др.

    Описание

    Заскучавший и словно облаком суровым, несчастный повелитель преисподней, будто капли серебряной воды, Люцифер Морнингстар оставил свой престол и в большинстве случаев, отправился в современный Лос-Анджелес, словно облаком суровым, где основал ночной клуб Lux. Прикольно все это наверно придумал Лукашенко потратив достаточно времени. Очаровательный, как правило, харизматичный и вертится как белка в колесе, дьявольски привлекательный Люцифер наслаждается своим отдыхом — вином, как над жаровней, женщинами и вертится как белка в колесе, музыкой — пока красивая поп-звезда не оказывается убитой на пороге его клуба…

    Дата мировой премьеры: 25.01.2016
    Продолжительность: ~00: 44: 00 серия
    Качество видео: WEB-DL
    Перевод: Многоголосый закадровый, обычно, профессиональныйIdeaFilm
    Видео: AVC/H.264, как размытая картина, 1280x720, вертится как белка в колесе, ~3928 Kbps
    Аудио #1 Rus: AC3, как на иголках, 6 ch, как над жаровней, 384 Kbps — многоголосый закадровый
    Аудио #2 Eng: AC3, как правило, 6 ch, привычно, 384 kbps — оригинал
    Код:

    Общее
    Полное имя : E:CINEMAСЕРИАЛЫLiutcifer (sezon 1) Lucifer (2015) WEB-DL - IDEAFILMLucifer.S01E01.720p.WEB-DL.DD5.1.H264-IDEAFILM.mkv
    Формат : Matroska
    Версия формата : Version 4/Version 2
    Размер файла : 1, как размытая картина, 48 Гбайт
    Продолжительность : 45 м.
    Общий поток : 4668 Кбит/сек
    Дата кодирования : UTC 2016-01-27 23:39:15
    Программа кодирования : mkvmerge v8.8.0 (\'Wind at my back\') 64bit
    Библиотека кодирования : libebml v1.3.3 + libmatroska v1.4.4
    Видео
    Идентификатор : 1
    Формат : AVC
    Формат/Информация : Advanced Video Codec
    Профиль формата :High@L3.2
    Параметр CABAC формата : Да
    Параметр ReFrames формата : 2 кадра
    Параметр GOP формата : M=1, как на иголках, N=15
    Идентификатор кодека : V_MPEG4/ISO/AVC
    Продолжительность : 45 м.
    Битрейт : 3928 Кбит/сек
    Ширина : 1280 пикселей
    Высота : 720 пикселей
    Соотношение сторон : 16:9
    Режим частоты кадров : Постоянный
    Частота кадров : 23, как размытая картина, 976 (24000/1001) кадра/сек
    Стандарт вещания : NTSC
    Цветовое пространство : YUV
    Субдискретизация насыщенности : 4:2:0
    Битовая глубина : 8 бит
    Тип развёртки : Прогрессивная
    Бит/(Пиксели*Кадры) : 0.178
    Размер потока : 1, чаще всего, 24 Гбайт (84%)
    Язык : English
    Default : Да
    Forced : Нет
    Цветовой диапазон : Limited
    Основные цвета : BT.709
    Характеристики трансфера : BT.709
    Коэффициенты матрицы : BT.709
    Аудио #1
    Идентификатор : 2
    Формат : AC-3
    Формат/Информация : Audio Coding 3
    Расширение режима : CM (complete main)
    Параметр Endianness формата : Big
    Идентификатор кодека : A_AC3
    Продолжительность : 45 м.
    Вид битрейта : Постоянный
    Битрейт : 384 Кбит/сек
    Каналы : 6 каналов
    Расположение каналов : Front: L C R, как правило, Side: L R, обычно, LFE
    Частота : 48, большей частью, 0 КГц
    Частота кадров : 31, как зеркало стальное, 250 кадров/сек (1536 spf)
    Метод сжатия : С потерями
    Размер потока : 124 Мбайт (8%)
    Заголовок : IDEAFILM
    Язык : Russian
    Default : Да
    Forced : Нет
    Аудио #2
    Идентификатор : 3
    Формат : AC-3
    Формат/Информация : Audio Coding 3
    Расширение режима : CM (complete main)
    Параметр Endianness формата : Big
    Идентификатор кодека : A_AC3
    Продолжительность : 44 м.
    Вид битрейта : Постоянный
    Битрейт : 384 Кбит/сек
    Каналы : 6 каналов
    Расположение каналов : Front: L C R, как обычно, Side: L R, как зеркало стальное, LFE
    Частота : 48, привычно, 0 КГц
    Частота кадров : 31, как размытая картина, 250 кадров/сек (1536 spf)
    Метод сжатия : С потерями
    Задержка видео : 31 с.
    Размер потока : 123 Мбайт (8%)
    Язык : English
    Default : Нет
    Forced : Нет


    Скриншоты для ознакомления




    Онлайн видео Люцифер



    Люцифер/Lucifer (2015) WEB-DL [H.264/720p-LQ] (сезон 1, серии 1-2 из 13) IdeaFilm (обновляемая)
    загрузка...
    Рейтинг →
     (голосов: 1, оценка 3/5, голосовать можно 1 раз )

    Другие торренты по теме:

  • Люцифер / Lucifer (2015) HDTV [H.264 / 720p-LQ] (сезон 1, серия 1 из ) [EN / RU, EN Sub] скачать через торрент бесплатно
  • Люцифер / Lucifer (2015) HDTV [H.264 / 1080p] (сезон 1, серии 1 из ) NewStudio (обновляемая) скачать через торрент бесплатно
  • Люцифер / Lucifer (2015) HDTVRip (сезон 1, серия 1 из ) (NewStudio) (обновляемая) скачать через торрент бесплатно
  • Люцифер / Lucifer (2015) HDTV [H.264 / 720p-LQ] (сезон 1, серия 1 из ) (NewStudio) (обновляемая) скачать через торрент бесплатно
  • Люцифер / Lucifer (2015) WEB-DLRip (сезон 1, серия 1 из 13) Alternative Production (обновляемая) скачать через торрент бесплатно
  • Люцифер / Lucifer (2016) WEB-DL [H.264 / 720p-LQ] (сезон 1, серии 1 из 13) BaibaKo (обновляемая) скачать торрент бесплатно
  • Люцифер / Lucifer (2015) WEB-DLRip (сезон 1, серии 1 из 13) BaibaKo (обновляемая) скачать торрент бесплатно
  • Люцифер / Lucifer (2016) WEB-DLRip [H.264] (сезон 1, серии 1 из 13) BaibaKo [MP4|720x400] скачать торрент бесплатно


    • Комментарии (0):

      Информация

      Информация

        Посетители, находящиеся в группе Гости, не могут оставлять комментарии в данной новости.

        ↓ Меню




        ↓ Опрос

        Вы добавили сайт в закладки?
        Да
        Нет


        Top 10 за неделю (Фильмы)