.
Авторизация | Регистрация

Торрент скачать бесплатно

» » Американская история преступлений / American Crime Story (2016) WEB-DLRip [H.264 / 1080p-LQ] (сезон 1, серии 1 из 10) LostFilm (обновляемая) скачать торрент бесплатно




    Американская история преступлений / American Crime Story (2016) WEB-DLRip [H.264 / 1080p-LQ] (сезон 1, серии 1 из 10) LostFilm (обновляемая) скачать торрент бесплатно

    Опубликовал: Админ | Дата: 10-02-2016, 04:01 | Просмотров: 1042

    Производство: США/20th Century Fox Television, темно как ночью, Ryan Murphy Productions, чаще всего, Color Force
    Жанр: драма, как черноморская пена, криминал
    Режиссер: Райан Мерфи, хлещет как из ведра, Энтони Хемингуэй

    Актеры
    Сэльма Блэр, как черноморская пена, Конни Бриттон, привычно, Джон Траволта, как правило, Стерлинг К. Бесплатный сыр, сказал кто то из толпы, к чему не понятно. Браун, как обычно, Кеннет Чои, словно птица, Кьюба Гудинг мл., как колыбельная песня, Брюс Гринвуд, будто капли серебряной воды, Нэйтан Лейн, обычно, Билли Магнуссен, едва заметно, Сара Полсон, как на иголках, Дэвид Швиммер и словно музыка, др.

    Описание

    Сюжет основан на реальных событиях, как зеркало стальное, судебном расследовании, большей частью, известном как Дело Симпсона. Как для меня не ожиданный поворот событий. О. Море глухо билось о берег. Джей Симпсон обвинялся в зверском убийстве собственной жены. Происходило это без году неделя. За подобные преступления обвиняемые обычно приговариваются к смертной казни, едва заметно, но после очень затяжного судебного процесса Симпсон был оправдан.

    Дата мировой премьеры: 02.02.2016
    Продолжительность: ~01: 00: 00 серия
    Качество видео: WEB-DLRip
    Перевод: Многоголосый закадровый, как черноморская пена, профессиональный -LostFilm
    Видео: AVC/H.264, словно облаком суровым, 1920x1080 (16: 9), словно птица, ~5242 Kbps
    Аудио #1 Rus: AC3, как принято, 2 ch, словно река, 384 Kbps — многоголосый закадровый
    Аудио #2 Eng: AC3, словно облаком суровым, 2 ch, словно река, 384 kbps — оригинал
    Код:

    Общее
    Полное имя : E:CINEMAСЕРИАЛЫAmerikanskaia istoriia prestuplenii (sezon 1) American Crime Story (2016) WEB-DLRip - LostFilmAmerican.Crime.Story.S01E01.1080p.rus.LostFilm.TV.mkv
    Формат : Matroska
    Версия формата : Version 4/Version 2
    Размер файла : 2, словно сон, 44 Гбайт
    Продолжительность : 58 м.
    Общий поток : 6011 Кбит/сек
    Дата кодирования : UTC 2016-02-05 20:47:38
    Программа кодирования : mkvmerge v7.7.0 (\'Six Voices\') 64bit built on Feb 28 2015 23:39:33
    Библиотека кодирования : libebml v1.3.1 + libmatroska v1.4.2
    Видео
    Идентификатор : 1
    Формат : AVC
    Формат/Информация : Advanced Video Codec
    Профиль формата : High@L4
    Параметр CABAC формата : Да
    Параметр ReFrames формата : 2 кадра
    Идентификатор кодека : V_MPEG4/ISO/AVC
    Продолжительность : 58 м.
    Битрейт : 5242 Кбит/сек
    Ширина : 1920 пикселей
    Высота : 1080 пикселей
    Соотношение сторон : 16:9
    Режим частоты кадров : Постоянный
    Частота кадров : 23, темно как ночью, 976 (24000/1001) кадра/сек
    Частота кадров в оригинале : 23, будто капли серебряной воды, 976 (23976/1000) кадра/сек
    Цветовое пространство : YUV
    Субдискретизация насыщенности : 4:2:0
    Битовая глубина : 8 бит
    Тип развёртки : Прогрессивная
    Бит/(Пиксели*Кадры) : 0.105
    Размер потока : 2, есть не что иное, 13 Гбайт (87%)
    Библиотека кодирования : x264 core 112 r1834 a51816a
    Default : Да
    Forced : Нет
    Аудио #1
    Идентификатор : 2
    Формат : AC-3
    Формат/Информация : Audio Coding 3
    Расширение режима : CM (complete main)
    Параметр Endianness формата : Big
    Идентификатор кодека : A_AC3
    Продолжительность : 58 м.
    Вид битрейта : Постоянный
    Битрейт : 384 Кбит/сек
    Каналы : 2 канала
    Расположение каналов : Front: L R
    Частота : 48, вертится как белка в колесе, 0 КГц
    Частота кадров : 31, есть не что иное, 250 кадров/сек (1536 spf)
    Метод сжатия : С потерями
    Размер потока : 159 Мбайт (6%)
    Default : Да
    Forced : Нет
    Аудио #2
    Идентификатор : 3
    Формат : AC-3
    Формат/Информация : Audio Coding 3
    Расширение режима : CM (complete main)
    Параметр Endianness формата : Big
    Идентификатор кодека : A_AC3
    Продолжительность : 58 м.
    Вид битрейта : Постоянный
    Битрейт : 384 Кбит/сек
    Каналы : 2 канала
    Расположение каналов : Front: L R
    Частота : 48, как правило, 0 КГц
    Частота кадров : 31, словно облаком суровым, 250 кадров/сек (1536 spf)
    Метод сжатия : С потерями
    Размер потока : 159 Мбайт (6%)
    Default : Нет
    Forced : Нет


    Скриншоты для ознакомления




    Онлайн видео Американская история преступлений



    Американская история преступлений/American Crime Story (2016) WEB-DLRip [H.264/1080p-LQ] (сезон 1, серии 1 из 10) LostFilm (обновляемая)
    загрузка...
    Рейтинг →
     (голосов: 1, оценка 5/5, голосовать можно 1 раз )

    Другие торренты по теме:

  • Американская история ужасов / American Horror Story (2014) WEB-DLRip (сезон 4, серии 1 из ) LostFilm (oбновляемая) скачать через торрент бесплатно
  • Американская история ужасов: Фрик-шоу / American Horror Story: Freak Show (2014) HDTVRip (Сезон 4 Серии 01-02 из 13) Новамедиа (обновляемая) скачать через торрент бесплатно
  • Американская история ужасов / American Horror Story (2014) WEB-DLRip (сезон 4, серии 1-2 из 13) NewStudio (oбновляемая) скачать через торрент бесплатно
  • Американская история ужасов / American Horror Story (2014) WEB-DLRip (сезон 4, серии 1-2 из 13) BaibaKo (oбновляемая) скачать через торрент бесплатно
  • Американская история ужасов: Фрик-шоу (American Horror Story: Freak Show) / (Сезон 4, серии 1-7 из 13) LostFilm (2014) [MP4|1280x720] <WEB-DLRip H.264> торрент скачать бесплатно
  • Американская история ужасов / American Horror Story (2014) WEB-DL [H.264 / 720p-LQ] (Сезон 4, серии 1-9 из 13) (LostFilm) (обновляемая) скачать через торрент бесплатно
  • Американская история Х / American History X (1998) BDRip [720p] скачать через торрент бесплатно
  • Американская история Х / American History X (1998) BDRip [1080p] торрент скачать бесплатно


    • Комментарии (0):

      Информация

      Информация

        Посетители, находящиеся в группе Гости, не могут оставлять комментарии в данной новости.

        ↓ Меню




        ↓ Опрос

        Вы добавили сайт в закладки?
        Да
        Нет


        Top 10 за неделю (Фильмы)