.
Авторизация | Регистрация
Хочешь лучшие торренты? Добавь свой email!
Добавить

Торрент скачать бесплатно

» » Человек без прошлого (2015) SATRip (серии 1-4 из 16) (обновляемая) торрент скачать бесплатно




    Человек без прошлого (2015) SATRip (серии 1-4 из 16) (обновляемая) торрент скачать бесплатно

    Опубликовал: Админ | Дата: 10-02-2016, 04:01 | Просмотров: 65

    Производство: Россия /
    Жанр: детектив, криминал
    Режиссер: Эмилис Веливис

    Актеры
    Михаил Евланов, Дмитрий Лавров, Юрий Цурило, Роман Мадянов, Игорь Арташонов, Андрей Финягин, Светлана Устинова, Анна Попова, Евгений Атарик, Иван Шмаков, Александр Кузнецов, Юрий Архангельский, Юлия Такшина, Геннадий Венгеров и др.

    Описание

    Игорь Романов и Павел Грошев когда-то давно были друзьями, а сейчас оказались по разные стороны баррикад. Романов работает на крупного наркоторговца, а Грошев – опер в Госнаркоконтроле. Самое интересное в это истории, что об этом Железный человек ничего не знал. Случайная встреча оказывается для обоих роковой. Грошев срывает Романову криминальную сделку на три миллионов долларов, но взять бывшего друга с поличным ему не удаётся. В итоге, наркотики и деньги бесследно пропадают, а Романов, тяжело раненный в голову, полностью теряет память. Наркоторговцы подозревают Романова в том, что это он украл наркотики и деньги. Грошева отстраняют от службы и обвиняют в превышении полномочий и попытке убить бывшего друга. Куда делся груз и деньги? Кто хочет убить Романова? И на кого он на самом деле работает? Бывшим друзьям, оказавшимся вне закона, приходится объединить усилия, чтобы ответить на эти вопросы.

    Дата премьеры в России: 8 февраля 2016
    Продолжительность: ~00: 44: 00 серия
    Качество видео: SATRip
    Видео: XviD, 720x400 (16: 9), ~1800 kb/s
    Аудио: MPEG Layer 3, 48 kHz, 2 ch, 128 kbps
    Код:

    General
    Complete name : D:Человек без прошлого SatRipChelovek.bez.proshlogo.01.SATRip.avi
    Format : AVI
    Format/Info : Audio Video Interleave
    File size : 613 MiB
    Duration : 44mn 11s
    Overall bit rate : 1 938 Kbps
    Writing application : VirtualDubMod 1.5.10.3 |www.virtualdub-fr.org|| (build 2550/release)
    Writing library : VirtualDubMod build 2550/release
    Video
    ID : 0
    Format : MPEG-4 Visual
    Format profile : Advanced Simple@L5
    Format settings, BVOP : 2
    Format settings, QPel : No
    Format settings, GMC : No warppoints
    Format settings, Matrix : Default (H.263)
    Codec ID : XVID
    Codec ID/Hint : XviD
    Duration : 44mn 11s
    Bit rate : 1 800 Kbps
    Width : 720 pixels
    Height : 400 pixels
    Display aspect ratio : 16:9
    Frame rate : 25.000 fps
    Color space : YUV
    Chroma subsampling : 4:2:0
    Bit depth : 8 bits
    Scan type : Progressive
    Compression mode : Lossy
    Bits/(Pixel*Frame) : 0.250
    Stream size : 569 MiB (93%)
    Writing library : XviD 1.2.1 (UTC 2008-12-04)
    Audio
    ID : 1
    Format : MPEG Audio
    Format version : Version 1
    Format profile : Layer 3
    Mode : Joint stereo
    Mode extension : MS Stereo
    Codec ID : 55
    Codec ID/Hint : MP3
    Duration : 44mn 11s
    Bit rate mode : Constant
    Bit rate : 128 Kbps
    Channel(s) : 2 channels
    Sampling rate : 48.0 KHz
    Compression mode : Lossy
    Stream size : 40.5 MiB (7%)
    Alignment : Aligned on interleaves
    Interleave, duration : 40 ms (1.00 video frame)
    Interleave, preload duratio : 504 ms
    Writing library : LAME3.99r
    Encoding settings : -m j -V 4 -q 9 -lowpass 17 -b 128


    Скриншоты для ознакомления




    Онлайн видео Человек без прошлого (2015) SATRip (серии 1



    Человек без прошлого (2015) SATRip (серии 1-4 из 16) (обновляемая)
    загрузка...
    Рейтинг →
     (голосов: 1, оценка 5/5, голосовать можно 1 раз )

    Другие торренты по теме:

  • Человек без прошлого / Mies vailla menneisyytta (2002) BDRip [720p]
  • Человек без прошлого (2015) HDTVRip [H.264] (серии 1-8 из 16) (обновляемая)
  • Человек без прошлого (2015) HDTVRip (сезон 1, серии 1-16 из 16)


    • Комментарии (0):

      Информация

      Информация

        Посетители, находящиеся в группе Гости, не могут оставлять комментарии в данной новости.

        ↓ Меню




        ↓ Опрос

        Вы добавили сайт в закладки?
        Да
        Нет


        Top 10 за месяц (Фильмы)