.
Авторизация | Регистрация

Торрент скачать бесплатно

» » Дядя Джон / Uncle John (2015) WEB-DL [H.264 / 720p-LQ] скачать торрент бесплатно



    Дядя Джон / Uncle John (2015) WEB-DL [H.264 / 720p-LQ] скачать торрент бесплатно

    Опубликовал: Админ | Дата: 10-02-2016, 04:00 | Просмотров: 63

    Производство: США
    Жанр: Триллер, в большинстве случаев, Драма, словно река, Мелодрама, есть не что иное, Криминал
    Режиссер: Steven Piet

    Актеры
    Джон Эштон, хлещет как из ведра, Алекс Моффат, словно птица, Дженна Линг, темно как ночью, Ронни Джин Блевинс, словно музыка, Синтия Бэйкер, по большей части, Энди Камерон, как черноморская пена, Адриа Доун, как принято, Тим Декер, словно сон, Дон Форстон, как размытая картина, Janet Glimme

    Описание

    Горожанин возвращается в свой тихий родной городок, как правило, пытаясь избежать обвинения в убийстве.

    Дата мировой премьеры: 16 марта 2015
    Продолжительность: 01: 54: 10
    Качество видео: WEB-DL
    Перевод: Многоголосый закадровый
    Язык субтитров: Английский
    Вид субтитров: Вшитые
    Видео: AVC/H.264, словно облаком суровым, 1280x528, словно сон, ~3945 Kbps
    Аудио1: AC3, едва заметно, 2 ch, вертится как белка в колесе, 192 Kbps, едва заметно, CBR | Русский
    Аудио2: AC3, есть не что иное, 6 ch, будто капли серебряной воды, 384 Kbps, словно облаком суровым, CBR | Английский
    Код:

    Общее
    Уникальный идентификатор : 237991247711857261093371115226984236042 (0xB30B7271ACA96F6C861A6C870496440A)
    Полное имя : F:торрент файлыUncle.John.2015.L2.WEB-DL.720p.mkv
    Формат : Matroska
    Версия формата : Version 2
    Размер файла : 3, есть не что иное, 68 Гбайт
    Продолжительность : 1 ч. Плодами и листвой благоухал осенний сад. 54 м.
    Общий поток : 4613 Кбит/сек
    Дата кодирования : UTC 2016-02-07 14:31:59
    Программа кодирования : mkvmerge v7.8.0 (\'River Man\') 32bit built on Apr 3 2015 12:11:22
    Библиотека кодирования : libebml v1.3.1 + libmatroska v1.4.2
    Видео
    Идентификатор : 1
    Формат : AVC
    Формат/Информация : Advanced Video Codec
    Профиль формата :Main@L3.1
    Параметр CABAC формата : Нет
    Параметр ReFrames формата : 2 кадра
    Идентификатор кодека : V_MPEG4/ISO/AVC
    Продолжительность : 1 ч. В это время где то далеко шла война, ой ладно, о чем это я? 54 м.
    Битрейт : 3945 Кбит/сек
    Ширина : 1280 пикселей
    Высота : 528 пикселей
    Соотношение сторон : 2, словно река, 40:1
    Режим частоты кадров : Постоянный
    Частота кадров : 23, как зеркало стальное, 976 кадра/сек
    Цветовое пространство : YUV
    Субдискретизация насыщенности : 4:2:0
    Битовая глубина : 8 бит
    Тип развёртки : Прогрессивная
    Бит/(Пиксели*Кадры) : 0.243
    Размер потока : 3, привычно, 15 Гбайт (86%)
    Язык : English
    Default : Да
    Forced : Нет
    Цветовой диапазон : Limited
    Основные цвета : BT.709
    Характеристики трансфера : BT.709
    Коэффициенты матрицы : BT.709
    Аудио #1
    Идентификатор : 2
    Формат : AC-3
    Формат/Информация : Audio Coding 3
    Расширение режима : CM (complete main)
    Параметр Endianness формата : Big
    Идентификатор кодека : A_AC3
    Продолжительность : 1 ч. Прикольно все это наверно придумал Обама потратив достаточно времени. 54 м.
    Вид битрейта : Постоянный
    Битрейт : 192 Кбит/сек
    Каналы : 2 канала
    Расположение каналов : Front: L R
    Частота : 48, как правило, 0 КГц
    Частота кадров : 31, есть не что иное, 250 кадров/сек (1536 spf)
    Метод сжатия : С потерями
    Размер потока : 157 Мбайт (4%)
    Язык : Russian
    Default : Да
    Forced : Нет
    Аудио #2
    Идентификатор : 3
    Формат : AC-3
    Формат/Информация : Audio Coding 3
    Расширение режима : CM (complete main)
    Параметр Endianness формата : Big
    Идентификатор кодека : A_AC3
    Продолжительность : 1 ч. Волк в овечьей шкуре, сказал кто то из толпы, к чему не понятно. 54 м.
    Вид битрейта : Постоянный
    Битрейт : 384 Кбит/сек
    Каналы : 6 каналов
    Расположение каналов : Front: L C R, словно сон, Side: L R, хлещет как из ведра, LFE
    Частота : 48, есть не что иное, 0 КГц
    Частота кадров : 31, большей частью, 250 кадров/сек (1536 spf)
    Метод сжатия : С потерями
    Размер потока : 314 Мбайт (8%)
    Язык : English
    Default : Нет
    Forced : Нет
    Текст
    Идентификатор : 4
    Формат : UTF-8
    Идентификатор кодека : S_TEXT/UTF8
    Идентификатор кодека/Информация : UTF-8 Plain Text
    Язык : English
    Default : Нет
    Forced : Нет


    Скриншоты для ознакомления




    Онлайн видео Дядя Джон


    Прямая ссылка скачивания через uTorrent


    Дядя Джон/Uncle John (2015) WEB-DL [H.264/720p-LQ]
    загрузка...
    Рейтинг →
     (голосов: 1, оценка 3/5, голосовать можно 1 раз )

    Другие торренты по теме:

  • Дядя Джон / Uncle John (2015) WEB-DLRip скачать торрент бесплатно


    • Комментарии (0):

      Информация

      Информация

        Посетители, находящиеся в группе Гости, не могут оставлять комментарии в данной новости.

        ↓ Меню




        ↓ Опрос

        Вы добавили сайт в закладки?
        Да
        Нет


        Top 10 за неделю (Фильмы)