.
Авторизация | Регистрация
Хочешь лучшие торренты? Добавь свой email!
Добавить

Торрент скачать бесплатно

» » Метод Фрейда (2015) HDTV [H.264 / 1080p-LQ] (сезон 2, серии 1-4 из 12) (обновляемая) торрент скачать бесплатно




    Метод Фрейда (2015) HDTV [H.264 / 1080p-LQ] (сезон 2, серии 1-4 из 12) (обновляемая) торрент скачать бесплатно

    Опубликовал: Админ | Дата: 9-02-2016, 04:01 | Просмотров: 43

    Телекомпания: Россия/Стар-медиа, Первый канал
    Жанр: детектив, криминал
    Режиссер: Иван Стаханов

    Актеры
    Иван Охлобыстин, Наталия Антонова, Алексей Гришин, Артур Ваха, Роман Полянский, Ольга Дибцева, Татьяна Лютаева, Георгий Лежава, Сергей Павлов, Алексей Шаранин и др.

    Описание

    В следственный отдел прокуратуры введен специальный консультант Роман Фрейдин, психолог и профессиональный игрок в покер. В молодости Фрейдин объездил всю Россию и Европу, общался с людьми самых разных профессий. В расследовании преступлений он опирается на интуицию, использует научные методики, воссоздает биокинетические картины событий, психофизические портреты преступников и прогнозирует действия бандитов. Но базовым моментом для Романа является психология.

    Продолжительность: ~ 00: 50: 00 серия
    Качество видео: HDTV
    Видео: AVC, 1920x1080 (16: 9), 25.000 fps, 5 175 Kbps (0.100 bit/pixel)
    Аудио 1: AC-3, 48.0 KHz, 6 ch, 384 Kbps, CBR
    Аудио 2: MP2, 48.0 KHz, 2 ch, 192 Kbps, CBR
    Код:
    Формат : MPEG-TS
    Размер файла : 2, 09 Гбайт
    Продолжительность : 49 м.
    Режим общего битрейта : Переменный
    Общий поток : 6056 Кбит/сек
    Видео
    Идентификатор : 604 (0x25C)
    Идентификатор меню : 80 (0x50)
    Формат : AVC
    Формат/Информация : Advanced Video Codec
    Профиль формата : High@L4
    Параметр CABAC формата : Да
    Параметр ReFrames формата : 3 кадра
    Параметр GOP формата : M=4, N=36
    Идентификатор кодека : 27
    Продолжительность : 49 м.
    Битрейт : 5175 Кбит/сек
    Ширина : 1920 пикселей
    Высота : 1080 пикселей
    Соотношение сторон : 16:9
    Частота кадров : 25, 000 кадров/сек
    Стандарт вещания : Component
    Цветовое пространство : YUV
    Субдискретизация насыщенности : 4:2:0
    Битовая глубина : 8 бит
    Тип развёртки : Чересстрочная
    Порядок развёртки : Верхнее поле первое
    Бит/(Пиксели*Кадры) : 0.100
    Размер потока : 1, 78 Гбайт (85%)
    Цветовой диапазон : Limited
    Основные цвета : BT.709
    Характеристики трансфера : BT.709
    Коэффициенты матрицы : BT.709
    Аудио #1
    Идентификатор : 607 (0x25F)
    Идентификатор меню : 80 (0x50)
    Формат : AC-3
    Формат/Информация : Audio Coding 3
    Расширение режима : CM (complete main)
    Параметр Endianness формата : Big
    Идентификатор кодека : 6
    Продолжительность : 49 м.
    Вид битрейта : Постоянный
    Битрейт : 384 Кбит/сек
    Каналы : 6 каналов
    Расположение каналов : Front: L C R, Side: L R, LFE
    Частота : 48, 0 КГц
    Битовая глубина : 16 бит
    Метод сжатия : С потерями
    Задержка видео : -120 мс.
    Размер потока : 135 Мбайт (6%)
    Язык : Russian
    Аудио #2
    Идентификатор : 608 (0x260)
    Идентификатор меню : 80 (0x50)
    Формат : MPEG Audio
    Версия формата : Version 1
    Профиль формата : Layer 2
    Идентификатор кодека : 3
    Продолжительность : 49 м.
    Вид битрейта : Постоянный
    Битрейт : 192 Кбит/сек
    Каналы : 2 канала
    Частота : 48, 0 КГц
    Метод сжатия : С потерями
    Задержка видео : -120 мс.
    Размер потока : 67, 7 Мбайт (3%)
    Язык : Russian


    Скриншоты для ознакомления




    Онлайн видео Метод Фрейда (2015) HDTV [H.264



    Метод Фрейда (2015) HDTV [H.264/1080p-LQ] (сезон 2, серии 1-4 из 12) (обновляемая)
    загрузка...
    Рейтинг →
     (голосов: 1, оценка 4/5, голосовать можно 1 раз )

    Другие торренты по теме:

  • Метод Фрейда (2012) WEB-DLRip [H.264 / 720p-LQ] (серии 1-12 из 12) скачать через торрент бесплатно
  • Метод Фрейда (2012) WEB-DLRip [H.264 / 1080p-LQ] (серии 1-12 из 12) скачать через торрент бесплатно
  • Метод Фрейда (2015) IPTVRip (сезон 2, серии 1-4 из 12) (обновляемая) скачать через торрент бесплатно
  • Метод Фрейда (2015) WEB-DLRip (сезон 2, серии 1-8 из 12) (обновляемая)
  • Метод Фрейда (2015) WEB-DL [H.264 / 1080p-LQ] (сезон 2, серии 1-4 из 12) (обновляемая)
  • Метод Фрейда (2015) WEB-DLRip [H.264] (сезон 2, серии 1-4 из 12) (обновляемая)
  • Метод Фрейда (2015) WEB-DL [H.264 / 720p-LQ] (сезон 2, серии 1-12 из 12)
  • Метод Фрейда (2015) HDTVRip [H.264 / 720p-LQ] (сезон 2, серии 1-4 из 12) (обновляемая)


    • Комментарии (0):

      Информация

      Информация

        Посетители, находящиеся в группе Гости, не могут оставлять комментарии в данной новости.

        ↓ Меню




        ↓ Опрос

        Вы добавили сайт в закладки?
        Да
        Нет


        Top 10 за месяц (Фильмы)