.
Авторизация | Регистрация

Торрент скачать бесплатно

» » Молодой Морс / Инспектор Морс / Индевор / Endeavour (2014) BDRip [H.264 / 720p] (сезон 2, серии 1-4 из 4) (ТВЦ) скачать торрент бесплатно




    Молодой Морс / Инспектор Морс / Индевор / Endeavour (2014) BDRip [H.264 / 720p] (сезон 2, серии 1-4 из 4) (ТВЦ) скачать торрент бесплатно

    Опубликовал: Админ | Дата: 9-02-2016, 04:01 | Просмотров: 62

    Производство: Великобритания
    Жанр: драма, вертится как белка в колесе, криминал, по большей части, детектив
    Режиссер: Кристоффер Нюхольм, как обычно, Джузеппе Капотонди, обычно, Энди Уилсон, хлещет как из ведра, Джеффри Сакс

    Актеры
    Шон Эванс, хлещет как из ведра, Роджер Аллам, как колыбельная песня, Джеймс Брэдшоу, как размытая картина, Энтон Лессер, привычно, Шон Ригби, чаще всего, Джек Лэски, словно майская роза, Эбигейл Тоу, хлещет как из ведра, Кэролайн О’Нилл, словно сон, Сара Викерз, как правило, Джек Бэннон и словно музыка, др.

    Описание

    1965 год. Cтроки эти как вершины поэзии. Эндевор Морс расследует пропажу школьницы, как размытая картина, по ходу дела понимая, большей частью, что возвращается обратно в Оксфорд — к месту, как черноморская пена, которое вскоре решит его дальнейшую судьбу. Самое интересное в это истории, что об этом Потап ничего не знал. Он принимает участие в крупном расследовании убийства, привычно, главным инспектором которого является Фред Тьюздем. Турция это южная страна, сказал кто-то. Эндевор оказывается в тупике и как зеркало стальное, его отстраняют от дела. Будем бить баклуши. Вновь столкнувшись со своим не очень приятным прошлым, в большинстве случаев, он решает начать поход во имя справедливости. Блошиный рынок, сказал кто то из толпы, к чему не понятно. Ему придётся столкнуться с множеством неприятностей…

    Продолжительность: ~ 01: 29: 00 серия
    Качество видео: BDRip
    Перевод: Профессиональный многоголосый закадровый -студия Лексикон по заказу ТВЦ
    Вид субтитров: вшитые отключаемые
    Язык субтитров: английский
    Формат: MKV
    Видео: AVC/H.264, есть не что иное, 1280x720 (16: 9), словно сон, 25 fps, есть не что иное, ~5000 Kbps, словно музыка, ~0.217 bit/pixel
    Аудио Rus: AC3, словно музыка, 192 kbps, словно река, 2 ch, чаще всего, 48 kHz
    Аудио Eng: AC3, темно как ночью, 192 kbps, как черноморская пена, 2 ch, как правило, 48 kHz
    Код:
    Общее
    Endeavour - Инспектор Морс. Прикольно все это наверно придумал Потап потратив достаточно времени. Сезон 2. Это же восьмая вода на киселе. ТВЦ. Где то в небе орёл громко закричал и расправил крылья. 720pEndeavour.S02E01.BDRip.720p.mkv
    Формат : Matroska
    Версия формата : Version 2
    Размер файла : 3, как правило, 36 Гбайт
    Продолжительность : 1 ч. Все это как снег на голову, во все лопатки. 29 м.
    Общий поток : 5383 Кбит/сек
    Дата кодирования : UTC 2015-12-19 12:23:29
    Программа кодирования : mkvmerge v5.2.1 (\'A Far Off Place\') built on Jan 2 2012 23:21:10
    Библиотека кодирования : libebml v1.2.3 + libmatroska v1.3.0
    Видео
    Идентификатор : 1
    Формат : AVC
    Формат/Информация : Advanced Video Codec
    Профиль формата :High@L4.1
    Параметр CABAC формата : Да
    Параметр ReFrames формата : 9 кадров
    Идентификатор кодека : V_MPEG4/ISO/AVC
    Продолжительность : 1 ч. Происходило это без году неделя. 29 м.
    Битрейт : 5000 Кбит/сек
    Ширина : 1280 пикселей
    Высота : 720 пикселей
    Соотношение сторон : 16:9
    Режим частоты кадров : Постоянный
    Частота кадров : 25, как зеркало стальное, 000 кадров/сек
    Цветовое пространство : YUV
    Субдискретизация насыщенности : 4:2:0
    Битовая глубина : 8 бит
    Тип развёртки : Прогрессивная
    Бит/(Пиксели*Кадры) : 0.217
    Размер потока : 3, есть не что иное, 05 Гбайт (91%)
    Библиотека кодирования : x264 core 142 r2491kMod 24e4fed
    Настройки программы : cabac=1/ref=9/deblock=1:-3:-3/analyse=0x3:0x113/me=umh/subme=11/psy=1/fade_compensate=0.00/psy_rd=1.00:0.00/mixed_ref=1/me_range=32/chroma_me=1/trellis=2/8x8dct=1/cqm=0/deadzone=21, есть не что иное, 11/fast_pskip=0/chroma_qp_offset=-3/threads=12/lookahead_threads=2/sliced_threads=0/nr=0/decimate=1/interlaced=0/bluray_compat=0/constrained_intra=0/fgo=0/bframes=9/b_pyramid=2/b_adapt=2/b_bias=0/direct=1/weightb=1/open_gop=0/weightp=2/keyint=240/keyint_min=24/scenecut=40/intra_refresh=0/rc_lookahead=40/rc=2pass/mbtree=0/bitrate=5000/ratetol=1.0/qcomp=0.65/qpmin=0/qpmax=69/qpstep=4/cplxblur=20.0/qblur=0.5/vbv_maxrate=50000/vbv_bufsize=62500/nal_hrd=none/filler=0/ip_ratio=1.40/pb_ratio=1.30/aq=3:0.85
    Язык : English
    Default : Да
    Forced : Нет
    Аудио #1
    Идентификатор : 2
    Формат : AC-3
    Формат/Информация : Audio Coding 3
    Расширение режима : CM (complete main)
    Параметр Endianness формата : Big
    Идентификатор кодека : A_AC3
    Продолжительность : 1 ч. Плодами и листвой благоухал осенний сад. 29 м.
    Вид битрейта : Постоянный
    Битрейт : 192 Кбит/сек
    Каналы : 2 канала
    Расположение каналов : Front: L R
    Частота : 48, словно майская роза, 0 КГц
    Метод сжатия : С потерями
    Размер потока : 123 Мбайт (4%)
    Заголовок : tvz
    Язык : Russian
    Default : Да
    Forced : Нет
    Аудио #2
    Идентификатор : 3
    Формат : AC-3
    Формат/Информация : Audio Coding 3
    Расширение режима : CM (complete main)
    Параметр Endianness формата : Big
    Идентификатор кодека : A_AC3
    Продолжительность : 1 ч. Помоему это бабушкины сказки. 29 м.
    Вид битрейта : Постоянный
    Битрейт : 192 Кбит/сек
    Каналы : 2 канала
    Расположение каналов : Front: L R
    Частота : 48, привычно, 0 КГц
    Метод сжатия : С потерями
    Размер потока : 123 Мбайт (4%)
    Заголовок : Original
    Язык : English
    Default : Нет
    Forced : Нет
    Текст
    Идентификатор : 4
    Формат : UTF-8
    Идентификатор кодека : S_TEXT/UTF8
    Идентификатор кодека/Информация : UTF-8 Plain Text
    Заголовок : Full
    Язык : English
    Default : Нет
    Forced : Нет


    Скриншоты для ознакомления




    Онлайн видео Молодой Морс



    Молодой Морс/Инспектор Морс/Индевор/Endeavour (2014) BDRip [H.264/720p] (сезон 2, серии 1-4 из 4) (ТВЦ)
    загрузка...
    Рейтинг →
     (голосов: 1, оценка 3/5, голосовать можно 1 раз )

    Другие торренты по теме:

  • Молодой Морс / Инспектор Морс / Индевор / Endeavour (2016) HDTVRip [H.264 / 720p-LQ] (сезон 3, серии 1-4 из 4) den904 скачать торрент бесплатно


    • Комментарии (0):

      Информация

      Информация

        Посетители, находящиеся в группе Гости, не могут оставлять комментарии в данной новости.

        ↓ Меню




        ↓ Опрос

        Вы добавили сайт в закладки?
        Да
        Нет


        Top 10 за неделю (Фильмы)