.
Авторизация | Регистрация
Хочешь лучшие торренты? Добавь свой email!
Добавить

Торрент скачать бесплатно

» » Остров (2016) SATRip (сезон 1, серия 1 из 24) (обновляемая) торрент скачать бесплатно




    Остров (2016) SATRip (сезон 1, серия 1 из 24) (обновляемая) торрент скачать бесплатно

    Опубликовал: Админ | Дата: 9-02-2016, 04:01 | Просмотров: 58

    Производство: Россия
    Жанр: комедия
    Режиссер: Михаил Старчак, Артём Насыбулин, Александр Наумов

    Актеры
    Янина Студилина, Денис Косяков, Ирина Вилкова, Кирилл Мелехов, Анастасия Асеева, Анфиса Вистингаузен, Григорий Калинин, Евгений Кулик, Роман Хан, Олеся Жураковская, Леонид Моложанов, Сергей Бурунов, Светлана Павлова, Игорь Жижикин и др.

    Описание

    Новый комедийный сериал ТНТ начинается с того, что четырёх девушек и четырёх парней высаживают на необитаемом тропическом острове для съёмок в реалити-шоу. Их задача — выполняя задания организаторов, бороться за любовь зрителей: в конце победителя ждет большой денежный приз. Но после того, как на яхте со съёмочной группой случится авария, всё радикально изменится. Герои вступают в игру, даже не догадываясь, что их никто не снимает — они участники шоу, которого на самом деле нет. Но узнают они об этом не сразу... О таком странном сюжете не догадывалась даже ВиаГра. Их жизнь на острове и попытки вернуться домой приведут ко множеству смешных приключений и романтических историй.

    Премьера в РФ: 8 февраля 2016
    Продолжительность: ~ 00: 40: 00 серия
    Качество видео: SATRip
    Формат: AVI
    Видео: XviD, 720x400, 25 fps, ~1696 Kbps
    Аудио: MP3, 192 kbps, 2 ch, 48 kHz
    Код:
    Общее
    Остров. Сезон 1 (2016)1. Остров. SATRip.avi
    Формат : AVI
    Формат/Информация : Audio Video Interleave
    Размер файла : 551 Мбайт
    Продолжительность : 40 м.
    Общий поток : 1898 Кбит/сек
    Программа кодирования : VirtualDubMod 1.5.10.3 (build 2550/release)
    Библиотека кодирования : VirtualDubMod build 2550/release
    Видео
    Идентификатор : 0
    Формат : MPEG-4 Visual
    Профиль формата : Advanced Simple@L5
    Параметр BVOP формата : 1
    Параметр QPel формата : Нет
    Параметр GMC формата : Без точки перехода
    Параметр матрицы формата : Default (H.263)
    Идентификатор кодека : XVID
    Идентификатор кодека/Подсказка : XviD
    Продолжительность : 40 м.
    Битрейт : 1696 Кбит/сек
    Ширина : 720 пикселей
    Высота : 400 пикселей
    Соотношение сторон : 16:9
    Частота кадров : 25, 000 кадров/сек
    Цветовое пространство : YUV
    Субдискретизация насыщенности : 4:2:0
    Битовая глубина : 8 бит
    Тип развёртки : Прогрессивная
    Метод сжатия : С потерями
    Бит/(Пиксели*Кадры) : 0.236
    Размер потока : 493 Мбайт (89%)
    Библиотека кодирования : XviD 67
    Аудио
    Идентификатор : 1
    Формат : MPEG Audio
    Версия формата : Version 1
    Профиль формата : Layer 3
    Режим : Joint stereo
    Идентификатор кодека : 55
    Идентификатор кодека/Подсказка : MP3
    Продолжительность : 40 м.
    Вид битрейта : Постоянный
    Битрейт : 192 Кбит/сек
    Каналы : 2 канала
    Частота : 48, 0 КГц
    Метод сжатия : С потерями
    Размер потока : 55, 8 Мбайт (10%)
    Выравнивание : Разделение по промежуткам
    Продолжительность промежутка : 40 мс. Самое интересное в это истории, что об этом Шварценеггер ничего не знал. (1, 00 видеокадр)
    Время предзагрузки промежутка : 500 мс.
    Библиотека кодирования : LAME3.99.5ЄЄЄЄЄ2!


    Скриншоты для ознакомления




    Онлайн видео Академия (2015) SATRip (серии 1



    Остров (2016) SATRip (сезон 1, серия 1 из 24) (обновляемая)
    загрузка...
    Рейтинг →
     (голосов: 1, оценка 3/5, голосовать можно 1 раз )

    Другие торренты по теме:

  • Земля. Территория загадок. Остров Буян и атомная бомба Гитлера (2014) SATRip скачать через торрент бесплатно
  • Остров (2013) SATRip
  • В теме. Остров свободы (2015) SATRip скачать через торрент бесплатно
  • Остров (2016) SATRip (Серия 1-17) (обновляемая)
  • Одинокий остров / Uksik saar / Lonely Island (2012) SATRip


    • Комментарии (0):

      Информация

      Информация

        Посетители, находящиеся в группе Гости, не могут оставлять комментарии в данной новости.

        ↓ Меню




        ↓ Опрос

        Вы добавили сайт в закладки?
        Да
        Нет


        Top 10 за месяц (Фильмы)