.
Авторизация | Регистрация
Хочешь лучшие торренты? Добавь свой email!
Добавить

Торрент скачать бесплатно

» » Академия (2015) SATRip (серии 1-2 из 60) (Обновляемая) торрент скачать бесплатно




    Академия (2015) SATRip (серии 1-2 из 60) (Обновляемая) торрент скачать бесплатно

    Опубликовал: Админ | Дата: 9-02-2016, 04:01 | Просмотров: 61

    Производство: Россия/Кинокомпания DT Production
    Жанр: детектив, криминал
    Режиссер: Вячеслав Лавров, Анарио Мамедов, Александр Созонов, Габриэла Черняк

    Актеры
    Максим Битюков, Галина Сумина, Александр Константинов, Елизавета Лотова, Игорь Юртаев, Александр Яцко, Иван Верховых, Антонина Дивина, Владимир Юматов, Эрик Яралов, Юлия Подозёрова, Алена Горенко, Максим Сапрыкин (II), Елена Коллегова.

    Описание

    Сотрудница Следственного комитета РФ Анастасия Зорина в процессе расследования резонансного дела обращается к стороннему эксперту – преподавателю патанатомии, младшему научному сотруднику лаборатории регенерации тканей Московского Университета Кириллу Лемке. После успешного окончания дела СК РФ принимает решение создать специальную следственно-экспертную группу Академия, в которую войдут научные сотрудники различных факультетов МГУ – физики, химии, биологии… Куратором отдела назначена Настя Зорина. Молодому следователю будет нелегко держать в руках Лемке и компанию ученых, для которых поиск истины и результат всегда важнее буквы закона. О таком странном сюжете не догадывалась даже Земфира. Но игра стоит свеч – многие странные и загадочные преступления будут раскрыты именно благодаря свободному и нестандартному мышлению членов команды Академия.

    Дата премьеры в России: 8 февраля 2016
    Продолжительность: ~00: 47: 00 серия
    Качество видео: SATRip
    Видео: XviD, 720x400 (16: 9), ~1800 kb/s
    Аудио: MPEG Layer 3, 48 kHz, 2 ch, 128 kbps
    Код:

    General
    Complete name : D:Академия SatRipAkademija.01.avi
    Format : AVI
    Format/Info : Audio Video Interleave
    File size : 660 MiB
    Duration : 47mn 32s
    Overall bit rate : 1 940 Kbps
    Writing application : VirtualDubMod 1.5.10.3 |www.virtualdub-fr.org|| (build 2550/release)
    Writing library : VirtualDubMod build 2550/release
    Video
    ID : 0
    Format : MPEG-4 Visual
    Format profile : Advanced Simple@L5
    Format settings, BVOP : 2
    Format settings, QPel : No
    Format settings, GMC : No warppoints
    Format settings, Matrix : Default (MPEG)
    Codec ID : XVID
    Codec ID/Hint : XviD
    Duration : 47mn 32s
    Bit rate : 1 802 Kbps
    Width : 720 pixels
    Height : 400 pixels
    Display aspect ratio : 16:9
    Frame rate : 25.000 fps
    Color space : YUV
    Chroma subsampling : 4:2:0
    Bit depth : 8 bits
    Scan type : Progressive
    Compression mode : Lossy
    Bits/(Pixel*Frame) : 0.250
    Stream size : 613 MiB (93%)
    Writing library : XviD 1.2.1 (UTC 2008-12-04)
    Audio
    ID : 1
    Format : MPEG Audio
    Format version : Version 1
    Format profile : Layer 3
    Codec ID : 55
    Codec ID/Hint : MP3
    Duration : 47mn 32s
    Bit rate mode : Constant
    Bit rate : 128 Kbps
    Channel(s) : 2 channels
    Sampling rate : 48.0 KHz
    Compression mode : Lossy
    Stream size : 43.5 MiB (7%)
    Alignment : Aligned on interleaves
    Interleave, duration : 40 ms (1.00 video frame)
    Interleave, preload duratio : 504 ms
    Writing library : LAME3.99r
    Encoding settings : -m s -V 4 -q 2 -lowpass 17 -b 128


    Скриншоты для ознакомления




    Онлайн видео Академия (2015) SATRip (серии 1



    Академия (2015) SATRip (серии 1-2 из 60) (Обновляемая)
    загрузка...
    Рейтинг →
     (голосов: 1, оценка 5/5, голосовать можно 1 раз )

    Другие торренты по теме:

  • Королевская академия / Regal Academy (2016) SATRip [H.264] (Сезон 1, 26 серий из 26) [UKR]


    • Комментарии (0):

      Информация

      Информация

        Посетители, находящиеся в группе Гости, не могут оставлять комментарии в данной новости.

        ↓ Меню




        ↓ Опрос

        Вы добавили сайт в закладки?
        Да
        Нет


        Top 10 за месяц (Фильмы)