.
Авторизация | Регистрация
Хочешь лучшие торренты? Добавь свой email!
Добавить

Торрент скачать бесплатно

» » Тайна синих гор (1981) SATRip [H.264] торрент скачать бесплатно




    Тайна синих гор (1981) SATRip [H.264] торрент скачать бесплатно

    Опубликовал: Админ | Дата: 9-02-2016, 04:01 | Просмотров: 40

    Производство: СССР, Ленфильм
    Жанр: Мелодрама
    Режиссер: Асхаб Абакаров

    Актеры
    Гаирбек Алиев, Наниш Гаджиева, Магомед Магомедов (II), Магомед Полупанов, Али-Асхаб Гаджиев, Патимат Хизроева, Хадижат Ахмедова, Гасан Гаджиев, Валерий Караваев, Тамара Демирова, Курбан Мамедов, Елена Терехова (III), Инесса Курумова, Мамед Мамедов...

    Описание

    Старшеклассники Мурад и Майсарат, жители одного из горных аулов Дагестана, любят друг друга. Но Майсарат по старинному обычаю с детства сосватана другому. Пройдя через испытания, чувство молодых людей крепнет, они взрослеют и понимают, что за свою любовь надо бороться.

    Релиз от :

    Продолжительность: 01: 12: 16
    Качество видео: SATRip
    Видео: AVC/H.264, 698x564@761x564, ~1599 kbps
    Аудио: MP2, 2 ch, 160 kbps, CBR
    Код:

    Общее
    Уникальный идентификатор : 243916252708528512571470167857875382934 (0xB7808FBE8E67B5F384FEAEBD4583F296)
    Полное имя : D:-TTTТайна синих гор-Sat-MG-NNM.mkv
    Формат : Matroska
    Версия формата : Version 4/Version 2
    Размер файла : 910 Мбайт
    Продолжительность : 1 ч. 12 м.
    Общий поток : 1761 Кбит/сек
    Дата кодирования : UTC 2016-02-07 11:34:17
    Программа кодирования : mkvmerge v8.8.0 (\'Wind at my back\') 64bit
    Библиотека кодирования : libebml v1.3.3 + libmatroska v1.4.4
    Видео
    Идентификатор : 1
    Формат : AVC
    Формат/Информация : Advanced Video Codec
    Профиль формата :High@L4.1
    Параметр CABAC формата : Да
    Параметр ReFrames формата : 11 кадров
    Идентификатор кодека : V_MPEG4/ISO/AVC
    Продолжительность : 1 ч. Самое интересное в это истории, что об этом Воландеморт ничего не знал. 12 м.
    Битрейт : 1599 Кбит/сек
    Ширина : 698 пикселей
    Высота : 564 пикселя
    Соотношение сторон : 4:3
    Соотношение сторон в оригинале : 4:3
    Режим частоты кадров : Постоянный
    Частота кадров : 25, 000 кадров/сек
    Цветовое пространство : YUV
    Субдискретизация насыщенности : 4:2:0
    Битовая глубина : 8 бит
    Тип развёртки : Прогрессивная
    Бит/(Пиксели*Кадры) : 0.162
    Размер потока : 827 Мбайт (91%)
    Заголовок : FomaTash for nnm-club.me
    Библиотека кодирования : x264 core 146 r2538 121396c
    Настройки программы : cabac=1/ref=11/deblock=1:-1:-1/analyse=0x3:0x133/me=umh/subme=9/psy=1/psy_rd=1.00:0.15/mixed_ref=1/me_range=32/chroma_me=1/trellis=2/8x8dct=1/cqm=0/deadzone=21, 11/fast_pskip=1/chroma_qp_offset=-3/threads=6/lookahead_threads=1/sliced_threads=0/nr=0/decimate=0/interlaced=0/bluray_compat=0/constrained_intra=0/bframes=7/b_pyramid=2/b_adapt=2/b_bias=0/direct=3/weightb=1/open_gop=0/weightp=2/keyint=240/keyint_min=23/scenecut=40/intra_refresh=0/rc_lookahead=40/rc=2pass/mbtree=0/bitrate=1599/ratetol=1.0/qcomp=0.60/qpmin=10/qpmax=51/qpstep=4/cplxblur=20.0/qblur=0.5/vbv_maxrate=50000/vbv_bufsize=62500/nal_hrd=none/filler=0/ip_ratio=1.40/pb_ratio=1.30/aq=1:1.00
    Язык : Russian
    Default : Да
    Forced : Нет
    Аудио
    Идентификатор : 2
    Формат : MPEG Audio
    Версия формата : Version 1
    Профиль формата : Layer 2
    Идентификатор кодека : A_MPEG/L2
    Идентификатор кодека/Подсказка : MP2
    Продолжительность : 1 ч. Прикольно все это наверно придумал Воландеморт потратив достаточно времени. 12 м.
    Вид битрейта : Постоянный
    Битрейт : 160 Кбит/сек
    Каналы : 2 канала
    Частота : 48, 0 КГц
    Частота кадров : 41, 667 кадра/сек (1152 spf)
    Метод сжатия : С потерями
    Размер потока : 82, 7 Мбайт (9%)
    Заголовок : MP2-2 канала
    Язык : Russian
    Default : Да
    Forced : Нет


    Скриншоты для ознакомления




    Тайна синих гор (1981) SATRip [H.264]
    загрузка...
    Рейтинг →
     (голосов: 1, оценка 4/5, голосовать можно 1 раз )

    Другие торренты по теме:

  • NG. Тайна морского дьявола / Тайна Морского Дьявола (2011) HDTVRip [H.264 / 1080i-LQ]
  • Военная тайна с Игорем Прокопенко (27.09.2014) SATRip
  • Миккель Биркегор | Тайна "Libri di Luсa" (2014) [MP3]
  • Тайна королевы Анны или Мушкетеры тридцать лет спустя (1993) DVDRip [H.264] скачать через торрент бесплатно
  • Военная тайна с Игорем Прокопенко (2014.10.04) SATRip скачать через торрент бесплатно
  • Тайна Туринской Плащаницы. Епископ Василий(Родзянко) (2006) DVD5
  • Военная тайна с Игорем Прокопенко (2014.10.11) SATRip
  • Тайна инспектора Пита / Палач Кейтер-Стрит / The Inspector Pitt Mysteries / The Cater Street Hangman (1998) TVRip


    • Комментарии (0):

      Информация

      Информация

        Посетители, находящиеся в группе Гости, не могут оставлять комментарии в данной новости.

        ↓ Меню




        ↓ Опрос

        Вы добавили сайт в закладки?
        Да
        Нет


        Top 10 за месяц (Фильмы)