.
Авторизация | Регистрация
Хочешь лучшие торренты? Добавь свой email!
Добавить

Торрент скачать бесплатно

» » Охота на монстра / Monster Hunt (2015) BDRip [H.264 / 1080р-LQ] торрент скачать бесплатно




    Охота на монстра / Monster Hunt (2015) BDRip [H.264 / 1080р-LQ] торрент скачать бесплатно

    Опубликовал: Админ | Дата: 9-02-2016, 04:01 | Просмотров: 43

    Производство: Китай, Гонконг/White Rabbit Entertainment, The, Base FX, Industrial Light Magic (ILM
    Жанр: Фэнтези, Боевик, Комедия
    Режиссер: Раман Хюи

    Актеры
    Тан Вэй, Сюэ Бай, Эрик Цан, Цзин Божань, У Цзян, Яо Чэнь, Уоллес Чунг, Ни Янь, Илэйн Цзинь, Го Сяодун

    Описание

    Когда-то давно люди и демоны мирно сосуществовали, но затем человеческая жадность привела род демонов на грань исчезновения…
    Плодом страсти обычного парня Инь Тяня и таинственной незнакомки становится малыш, которому предначертано занять трон короля демонов. Теперь странноватой парочке придется защищать свое чадо от злых демонов и коварных людей. Главным их врагом становится жестокий и алчный Цянь Ху Гэ, стремящийся пленить будущего короля, чтобы обрести безмерную силу.

    Дата мировой премьеры: 16 июля 2015
    Дата премьеры в России: 10 декабря 2015, Централ Партнершип

    Продолжительность: 01: 57: 04
    Качество видео: BDRip
    Перевод: Дублированный (iTunes )
    Язык субтитров: Английский
    Вид субтитров: Вшитые, отключаемые
    Видео: AVC/H.264, 1920x800, ~12.1 Мb/s
    Аудио №1: AC3, 6 ch, 384 kbps - Русский
    Аудио №2: AC3, 6 ch, 640 kbps - Английский
    Код:

    Общее
    Уникальный идентификатор : 251671783463970654899582576343984043087 (0xBD5638EEC0683000A2B3F06818A2F44F)
    Полное имя : 0x0Ta.Ha.M0HCTPa.2015.D.BDRip.1080p.mkv
    Формат : Matroska
    Версия формата : Version 4/Version 2
    Размер файла : 11, 0 Гбайт
    Продолжительность : 1 ч. 57 м.
    Общий поток : 13, 4 Мбит/сек
    Дата кодирования : UTC 2016-02-07 07:39:57
    Программа кодирования : mkvmerge v8.3.0 (\'Over the Horizon\') 64bit
    Библиотека кодирования : libebml v1.3.1 + libmatroska v1.4.2
    Видео
    Идентификатор : 1
    Формат : AVC
    Формат/Информация : Advanced Video Codec
    Профиль формата :High@L4.1
    Параметр CABAC формата : Да
    Параметр ReFrames формата : 4 кадра
    Идентификатор кодека : V_MPEG4/ISO/AVC
    Продолжительность : 1 ч. 57 м.
    Битрейт : 12, 1 Мбит/сек
    Ширина : 1920 пикселей
    Высота : 800 пикселей
    Соотношение сторон : 2, 40:1
    Режим частоты кадров : Постоянный
    Частота кадров : 23, 976 (24000/1001) кадра/сек
    Цветовое пространство : YUV
    Субдискретизация насыщенности : 4:2:0
    Битовая глубина : 8 бит
    Тип развёртки : Прогрессивная
    Бит/(Пиксели*Кадры) : 0.330
    Размер потока : 9, 92 Гбайт (90%)
    Библиотека кодирования : x264 core 146 r2538 121396c
    Настройки программы : cabac=1/ref=4/deblock=1:-3:-3/analyse=0x3:0x133/me=umh/subme=11/psy=1/psy_rd=1.00:0.15/mixed_ref=1/me_range=32/chroma_me=1/trellis=2/8x8dct=1/cqm=0/deadzone=21, 11/fast_pskip=1/chroma_qp_offset=-3/threads=12/lookahead_threads=2/sliced_threads=0/nr=0/decimate=1/interlaced=0/bluray_compat=0/constrained_intra=0/bframes=8/b_pyramid=2/b_adapt=2/b_bias=0/direct=3/weightb=1/open_gop=0/weightp=2/keyint=230/keyint_min=22/scenecut=40/intra_refresh=0/rc_lookahead=200/rc=crf/mbtree=1/crf=18.3/qcomp=0.60/qpmin=0/qpmax=40/qpstep=4/vbv_maxrate=62500/vbv_bufsize=78125/crf_max=0.0/nal_hrd=none/filler=0/ip_ratio=1.40/aq=1:1.00
    Default : Да
    Forced : Нет
    Аудио #1
    Идентификатор : 2
    Формат : AC-3
    Формат/Информация : Audio Coding 3
    Расширение режима : CM (complete main)
    Параметр Endianness формата : Big
    Идентификатор кодека : A_AC3
    Продолжительность : 1 ч. О таком странном сюжете не догадывалась даже Анастасия Стоцкая. 57 м.
    Вид битрейта : Постоянный
    Битрейт : 384 Кбит/сек
    Каналы : 6 каналов
    Расположение каналов : Front: L C R, Side: L R, LFE
    Частота : 48, 0 КГц
    Частота кадров : 31, 250 кадров/сек (1536 spf)
    Метод сжатия : С потерями
    Размер потока : 322 Мбайт (3%)
    Default : Да
    Forced : Нет
    Аудио #2
    Идентификатор : 3
    Формат : AC-3
    Формат/Информация : Audio Coding 3
    Расширение режима : CM (complete main)
    Параметр Endianness формата : Big
    Идентификатор кодека : A_AC3
    Продолжительность : 1 ч. 57 м.
    Вид битрейта : Постоянный
    Битрейт : 640 Кбит/сек
    Каналы : 6 каналов
    Расположение каналов : Front: L C R, Side: L R, LFE
    Частота : 48, 0 КГц
    Частота кадров : 31, 250 кадров/сек (1536 spf)
    Метод сжатия : С потерями
    Размер потока : 536 Мбайт (5%)
    Язык : English
    Default : Нет
    Forced : Нет
    Текст
    Идентификатор : 4
    Формат : PGS
    Режим смешивания : zlib
    Идентификатор кодека : S_HDMV/PGS
    Идентификатор кодека/Информация : Picture based subtitle format used on BDs/HD-DVDs
    Заголовок : ENG
    Язык : English
    Default : Нет
    Forced : Нет
    Меню
    00:00:00.000 : en:00:00:00.000
    00:08:56.494 : en:00:08:56.494
    00:19:49.105 : en:00:19:49.105
    00:29:36.858 : en:00:29:36.858
    00:40:09.532 : en:00:40:09.532
    00:47:49.241 : en:00:47:49.241
    00:58:35.762 : en:00:58:35.762
    01:09:18.571 : en:01:09:18.571
    01:17:06.497 : en:01:17:06.497
    01:28:18.710 : en:01:28:18.710
    01:36:06.594 : en:01:36:06.594
    01:48:05.270 : en:01:48:05.270


    Скриншоты для ознакомления




    Онлайн видео Охота на монстра



    Охота на монстра/Monster Hunt (2015) BDRip [H.264/1080р-LQ]
    загрузка...
    Рейтинг →
     (голосов: 1, оценка 5/5, голосовать можно 1 раз )

    Другие торренты по теме:

  • Охота на монстра / Monster Hunt (2015) DVDRip [VO] скачать через торрент бесплатно
  • Охота на Монстра / Monster Hunt (2015) HDRip скачать через торрент бесплатно
  • Охота на монстра / Monster Hunt (2015) HDRip
  • Охота на монстра / Monster Hunt (2015) BDRip [H.264]
  • Охота на монстра / Monster Hunt (2015) BDRip [H.264 / 720p] [hand made 60fps]
  • Охота на монстра / Monster Hunt (2015) BDRip [H.264 / 720p] [hand made 60fps]


    • Комментарии (0):

      Информация

      Информация

        Посетители, находящиеся в группе Гости, не могут оставлять комментарии в данной новости.

        ↓ Меню




        ↓ Опрос

        Вы добавили сайт в закладки?
        Да
        Нет


        Top 10 за месяц (Фильмы)