.
Авторизация | Регистрация
Хочешь лучшие торренты? Добавь свой email!
Добавить

Торрент скачать бесплатно

» » Соус / Gravy (2015) BDRip [H.264 / 1080p] [VO] торрент скачать бесплатно




    Соус / Gravy (2015) BDRip [H.264 / 1080p] [VO] торрент скачать бесплатно

    Опубликовал: Админ | Дата: 7-02-2016, 04:02 | Просмотров: 49

    Производство: США, Siren Digital - Hollywood, TapouT Films
    Жанр: Комедия, Ужасы
    Режиссер: Джеймс Родэй

    Актеры
    Лотер Блюто, Лили Коул, Молли Эфраим, Саттон Фостер, Стефани Е. Фрейм, Дуле Хилл, Гэбриел Луна, Джеймс Родэй, Пол Родригес, Кейт Рогал

    Описание

    Трое выряженных придурков со специфическими предпочтениями в еде облюбовывают мексиканское бистро. Персонал вынужден поздней ночью принимать участие в развлекательной программе гурманов, включающей в себя игры, возлияния и трапезу. Белая ворона, сказал кто то из толпы, к чему не понятно. Единственный остренький вопрос этого вечера — что же сегодня в меню?

    Продолжительность: 01: 38: 29
    Качество видео: BDRip (SceneRip)
    Перевод: Одноголосый закадровый, любительский (Хихикающий доктор)
    Язык субтитров: Русский, на надписи
    Вид субтитров: Вшитые, отключаемые
    Видео: AVC/H.264, 1920x816, ~9614 kbps
    Аудио 1: Русский, DTS, 6 ch, 1510 kbps
    Аудио 2: Русский, AC3, 6 ch, 640 kbps
    Аудио 3: Английский, DTS, 2 ch, 1509 kbps
    Семпл: Скачать
    Код:

    Общее
    Уникальный идентификатор : 251380079337432822474421407758511132887 (0xBD1E0ACF0CEE609C842F8A1B448E50D7)
    Полное имя : E:MMMMGravy.2015.1080p.BluRay.x264.mkv
    Формат : Matroska
    Версия формата : Version 4/Version 2
    Размер файла : 9, 13 Гбайт
    Продолжительность : 1 ч. 38 м.
    Общий поток : 13, 3 Мбит/сек
    Дата кодирования : UTC 2016-02-05 11:46:08
    Программа кодирования : mkvmerge v6.9.1 (\'Blue Panther\') 64bit built on Apr 18 2014 18:23:38
    Библиотека кодирования : libebml v1.3.0 + libmatroska v1.4.1
    Видео
    Идентификатор : 1
    Формат : AVC
    Формат/Информация : Advanced Video Codec
    Профиль формата :High@L4.1
    Параметр CABAC формата : Да
    Параметр ReFrames формата : 5 кадров
    Идентификатор кодека : V_MPEG4/ISO/AVC
    Продолжительность : 1 ч. 38 м.
    Битрейт : 9614 Кбит/сек
    Ширина : 1920 пикселей
    Высота : 816 пикселей
    Соотношение сторон : 2, 35:1
    Режим частоты кадров : Постоянный
    Частота кадров : 23, 976 кадра/сек
    Цветовое пространство : YUV
    Субдискретизация насыщенности : 4:2:0
    Битовая глубина : 8 бит
    Тип развёртки : Прогрессивная
    Бит/(Пиксели*Кадры) : 0.256
    Размер потока : 6, 43 Гбайт (70%)
    Библиотека кодирования : x264 core 148 r2597 e86f3a1
    Настройки программы : cabac=1/ref=5/deblock=1:0:0/analyse=0x3:0x133/me=umh/subme=7/psy=1/psy_rd=1.00:0.00/mixed_ref=1/me_range=16/chroma_me=1/trellis=1/8x8dct=1/cqm=0/deadzone=21, 11/fast_pskip=0/chroma_qp_offset=-2/threads=25/lookahead_threads=4/sliced_threads=0/nr=0/decimate=1/interlaced=0/bluray_compat=0/constrained_intra=0/bframes=3/b_pyramid=2/b_adapt=1/b_bias=0/direct=1/weightb=1/open_gop=0/weightp=2/keyint=250/keyint_min=23/scenecut=40/intra_refresh=0/rc_lookahead=40/rc=2pass/mbtree=1/bitrate=9614/ratetol=1.0/qcomp=0.60/qpmin=0/qpmax=69/qpstep=4/cplxblur=20.0/qblur=0.5/ip_ratio=1.40/aq=1:1.00
    Язык : English
    Default : Да
    Forced : Нет
    Аудио #1
    Идентификатор : 2
    Формат : DTS
    Формат/Информация : Digital Theater Systems
    Режим : 16
    Параметр Endianness формата : Big
    Идентификатор кодека : A_DTS
    Продолжительность : 1 ч. 38 м.
    Вид битрейта : Постоянный
    Битрейт : 1510 Кбит/сек
    Каналы : 6 каналов
    Расположение каналов : Front: L C R, Side: L R, LFE
    Частота : 48, 0 КГц
    Частота кадров : 93, 750 кадра/сек (512 spf)
    Битовая глубина : 24 бит
    Метод сжатия : С потерями
    Размер потока : 1, 04 Гбайт (11%)
    Заголовок : Xixidoktor
    Язык : Russian
    Default : Да
    Forced : Нет
    Аудио #2
    Идентификатор : 3
    Формат : AC-3
    Формат/Информация : Audio Coding 3
    Расширение режима : CM (complete main)
    Параметр Endianness формата : Big
    Идентификатор кодека : A_AC3
    Продолжительность : 1 ч. 38 м.
    Вид битрейта : Постоянный
    Битрейт : 640 Кбит/сек
    Каналы : 6 каналов
    Расположение каналов : Front: L C R, Side: L R, LFE
    Частота : 48, 0 КГц
    Частота кадров : 31, 250 кадров/сек (1536 spf)
    Метод сжатия : С потерями
    Размер потока : 451 Мбайт (5%)
    Заголовок : Xixidoktor
    Язык : Russian
    Default : Нет
    Forced : Нет
    Аудио #3
    Идентификатор : 4
    Формат : DTS
    Формат/Информация : Digital Theater Systems
    Режим : 16
    Параметр Endianness формата : Big
    Идентификатор кодека : A_DTS
    Продолжительность : 1 ч. 38 м.
    Вид битрейта : Постоянный
    Битрейт : 1509 Кбит/сек
    Каналы : 6 каналов
    Расположение каналов : Front: L C R, Side: L R, LFE
    Частота : 48, 0 КГц
    Частота кадров : 93, 750 кадра/сек (512 spf)
    Битовая глубина : 24 бит
    Метод сжатия : С потерями
    Размер потока : 1, 04 Гбайт (11%)
    Заголовок : original
    Язык : English
    Default : Нет
    Forced : Нет
    Текст
    Идентификатор : 5
    Формат : UTF-8
    Идентификатор кодека : S_TEXT/UTF8
    Идентификатор кодека/Информация : UTF-8 Plain Text
    Заголовок : Force
    Язык : Russian
    Default : Да
    Forced : Нет
    Меню
    00:00:00.000 : en:00:00:00.000
    00:11:09.627 : en:00:11:09.627
    00:17:27.213 : en:00:17:27.213
    00:31:25.759 : en:00:31:25.759
    00:42:10.903 : en:00:42:10.903
    00:57:19.019 : en:00:57:19.019
    01:06:01.708 : en:01:06:01.708
    01:20:41.670 : en:01:20:41.670
    01:30:13.408 : en:01:30:13.408
    01:34:13.565 : en:01:34:13.565


    Скриншоты для ознакомления




    Онлайн видео Соус



    Соус/Gravy (2015) BDRip [H.264/1080p] [VO]
    загрузка...
    Рейтинг →
     (голосов: 1, оценка 5/5, голосовать можно 1 раз )

    Другие торренты по теме:

  • Соус / Gravy (2015) BDRip [H.264 / 720p] [EN] скачать через торрент бесплатно
  • Соус / Gravy (2015) BDRip [H.264 / 1080p] [EN] скачать через торрент бесплатно
  • Соус / Gravy (2015) HDRip [VO] скачать через торрент бесплатно
  • Соус / Gravy (2015) BDRip [H.264 / 720p] [VO] скачать через торрент бесплатно


    • Комментарии (0):

      Информация

      Информация

        Посетители, находящиеся в группе Гости, не могут оставлять комментарии в данной новости.

        ↓ Меню




        ↓ Опрос

        Вы добавили сайт в закладки?
        Да
        Нет


        Top 10 за месяц (Фильмы)