.
Авторизация | Регистрация
Хочешь лучшие торренты? Добавь свой email!
Добавить

Торрент скачать бесплатно

» » Выжить после (2016) SATRip (сезон 2, серии 1-5 из 12) (обновляемая) торрент скачать бесплатно




    Выжить после (2016) SATRip (сезон 2, серии 1-5 из 12) (обновляемая) торрент скачать бесплатно

    Опубликовал: Админ | Дата: 6-02-2016, 04:00 | Просмотров: 66

    Производство: Россия/Арт Пикчерс Вижн по заказу СТС
    Жанр: триллер
    Режиссер: Душан Глигоров, Александр Богуславский

    Актеры
    Иван Макаревич, Шамиль Хаматов, Галина Звягинцева, Дмитрий Ендальцев, Евгения Розанова, Сергей Годин, Любовь Аксёнова, Валерия Федорович, Ольга Новосад, Александр Галибин, Вероника Айги, Евгений Вильтовский, Бибигуль Суюншалина и др.

    Описание

    Одиннадцать молодых людей заперты в подземном бункере. Они не знают друг друга. Никто из них не помнит, как здесь оказался. И, самое главное, они не в курсе, что творится снаружи. Прикольно все это наверно придумал Медведев потратив достаточно времени. Их выбрали для эксперимента. Могущественная корпорация Вершина разрабатывает вирус, цель которого - создание новой расы идеальных людей, готовых выполнять волю их творца. Но все идёт не по плану… Вирус вырывается из-под контроля и превращается в смертельное оружие… Теперь полем для экспериментов становится вся Москва! В считанные часы погибают десятки тысяч людей. В городе объявлена эвакуация. Все виды связи прерваны. Москва опустела.

    Продолжительность: ~00: 47: 00 серия
    Качество видео: SATRip
    Видео: Xvid, 720x400 (16: 9), ~1810 kbps
    Аудио: MP3, 2 ch, ~192 kbps, CBR
    Код:

    General
    Complete name : ...Выжить после (Сезон 2)Серия 01.avi
    Format : AVI
    Format/Info : Audio Video Interleave
    File size : 678 MiB
    Duration : 47mn 7s
    Overall bit rate : 2 012 Kbps
    Writing library : VirtualDub build 35512/release
    Video
    ID : 0
    Format : MPEG-4 Visual
    Format profile : Advanced Simple@L5
    Format settings, BVOP : 2
    Format settings, QPel : No
    Format settings, GMC : No warppoints
    Format settings, Matrix : Default (MPEG)
    Codec ID : XVID
    Codec ID/Hint : XviD
    Duration : 47mn 7s
    Bit rate : 1 810 Kbps
    Width : 720 pixels
    Height : 400 pixels
    Display aspect ratio : 16:9
    Frame rate : 25.000 fps
    Color space : YUV
    Chroma subsampling : 4:2:0
    Bit depth : 8 bits
    Scan type : Progressive
    Compression mode : Lossy
    Bits/(Pixel*Frame) : 0.251
    Stream size : 610 MiB (90%)
    Writing library : XviD 73
    Audio
    ID : 1
    Format : MPEG Audio
    Format version : Version 1
    Format profile : Layer 3
    Mode : Joint stereo
    Codec ID : 55
    Codec ID/Hint : MP3
    Duration : 47mn 7s
    Bit rate mode : Constant
    Bit rate : 192 Kbps
    Channel count : 2 channels
    Sampling rate : 48.0 KHz
    Compression mode : Lossy
    Stream size : 64.7 MiB (10%)
    Alignment : Split accross interleaves
    Interleave, duration : 40 ms (1.00 video frame)
    Interleave, preload duration : 500 ms


    Скриншоты для ознакомления




    Онлайн видео Выжить после (2016) SATRip (сезон любимого сериала 2, серии 1



    Выжить после (2016) SATRip (сезон 2, серии 1-5 из 12) (обновляемая)
    загрузка...
    Рейтинг →
     (голосов: 1, оценка 4/5, голосовать можно 1 раз )

    Другие торренты по теме:

  • Выжить После (2016) WEB-DLRip (сезон 2, серии 1-8 из 12) (обновляемая)
  • Выжить После (2016) SATRip (сезон 3, серии 1-2 из 12) (обновляемая)
  • Выжить после (2016) DVB [H.264] (сезон 3, серии 1-7 из 12) (обновляемая)
  • Выжить после (2016) DVB [H.264] (сезон 2, серии 1-12 из 12)
  • Михаил Пантаев | Матанализ с человеческим лицом, или Как выжить после предельного перехода. Полный курс математического анализа. Том 1 (2015) [PDF]
  • Михаил Пантаев | Матанализ с человеческим лицом, или Как выжить после предельного перехода. Полный курс математического анализа. Том 2 (2016) [PDF]
  • Discovery. Выжить после селфи [1-2 серии из ] / Still Alive (2015) HDTVRip (Обновляемая)
  • Выжить после (2016) WEBRip (сезон 3, серии 1-12 из 12)


    • Комментарии (0):

      Информация

      Информация

        Посетители, находящиеся в группе Гости, не могут оставлять комментарии в данной новости.

        ↓ Меню




        ↓ Опрос

        Вы добавили сайт в закладки?
        Да
        Нет


        Top 10 за месяц (Фильмы)