.
Авторизация | Регистрация
Хочешь лучшие торренты? Добавь свой email!
Добавить

Торрент скачать бесплатно

» » Солнце в подарок (2016) HDTVRip (серии 1-10 из 20) (обновляемая) торрент скачать бесплатно




    Солнце в подарок (2016) HDTVRip (серии 1-10 из 20) (обновляемая) торрент скачать бесплатно

    Опубликовал: Админ | Дата: 6-02-2016, 04:00 | Просмотров: 58

    Производство: Россия/Кинокомпания Русское
    Жанр: мелодрама
    Режиссер: Сергей Лялин

    Актеры
    Елена Шилова, Антон Сёмкин, Надежда Маркина, Владимир Жеребцов, Ирина Антоненко, Евгения Серебренникова, Кирилл Жандаров, Юрий Цурило, Анатолий Котенёв и др.

    Описание

    После трагической гибели матери жизнь Маши становится безрадостной. Ее отец заливает горе водкой, и в доме начинает хозяйничать соседка Галина, метящая на роль мачехи. Маша становится чужой в своей квартире и круглыми сутками пропадает на работе в больнице. К счастью, личная жизнь героини налаживается – Маша выходит замуж за своего пациента Костю. Но скороспелый брак таит в себе много подводных камней. Деспотичная свекровь Камышиха мечтала вовсе не о такой невестке, а ее брат Вяземский роковым образом оказывается причастен к смерти Машиной матери…

    Дата премьеры в РФ: 1 февраля 2016
    Продолжительность: ~ 00: 45: 00 серия
    Качество видео: HDTVRip
    Видео: Xvid, 720x400 (16: 9), ~1500 kbps
    Аудио: AC3, 2 ch, 192 kbps
    Код:

    Общее
    Полное имя : D:Не отсортированоCолнце в подарок..2015.HDTVRip.NNM1.Cолнце в подарок..2015.HDTVRip.NNM.avi
    Формат : AVI
    Формат/Информация : Audio Video Interleave
    Размер файла : 550 Мбайт
    Продолжительность : 44 м.
    Общий поток : 1712 Кбит/сек
    Программа кодирования : VirtualDubMod 1.5.10.3 |www.virtualdub-fr.org|| (build 2550/release)
    Библиотека кодирования : VirtualDubMod build 2550/release
    Видео
    Идентификатор : 0
    Формат : MPEG-4 Visual
    Профиль формата : Advanced Simple@L5
    Параметр BVOP формата : 1
    Параметр QPel формата : Нет
    Параметр GMC формата : Без точки перехода
    Параметр матрицы формата : Выборочная
    Идентификатор кодека : XVID
    Идентификатор кодека/Подсказка : XviD
    Продолжительность : 44 м.
    Битрейт : 1510 Кбит/сек
    Ширина : 720 пикселей
    Высота : 400 пикселей
    Соотношение сторон : 16:9
    Частота кадров : 25, 000 кадров/сек
    Цветовое пространство : YUV
    Субдискретизация насыщенности : 4:2:0
    Битовая глубина : 8 бит
    Тип развёртки : Прогрессивная
    Метод сжатия : С потерями
    Бит/(Пиксели*Кадры) : 0.210
    Размер потока : 485 Мбайт (88%)
    Библиотека кодирования : XviD 73
    Аудио
    Идентификатор : 1
    Формат : AC-3
    Формат/Информация : Audio Coding 3
    Расширение режима : CM (complete main)
    Параметр Endianness формата : Big
    Идентификатор кодека : 2000
    Продолжительность : 44 м.
    Вид битрейта : Постоянный
    Битрейт : 192 Кбит/сек
    Каналы : 2 канала
    Расположение каналов : Front: L R
    Частота : 48, 0 КГц
    Частота кадров : 31, 250 кадров/сек (1536 spf)
    Метод сжатия : С потерями
    Размер потока : 61, 7 Мбайт (11%)
    Выравнивание : Разделение по промежуткам
    Продолжительность промежутка : 40 мс. (1, 00 видеокадр)
    Время предзагрузки промежутка : 500 мс.


    Скриншоты для ознакомления




    Онлайн видео Солнце в подарок (2016) HDTVRip (серии 1



    Солнце в подарок (2016) HDTVRip (серии 1-10 из 20) (обновляемая)
    загрузка...
    Рейтинг →
     (голосов: 1, оценка 4/5, голосовать можно 1 раз )

    Другие торренты по теме:

  • С. И. Вавилов | Глаз и Солнце [о свете, Солнце и зрении] (1950) [DJVU] скачать через торрент бесплатно
  • Белое солнце пустыни (1969) BDRip [1080p] [hand made 60fps]
  • Зенон Косидовский | Когда солнце было богом (1968) [DJVU]
  • Прозрачное солнце осени (1982) SATRip скачать через торрент бесплатно
  • Волчье солнце (2014) WEB-DLRip [H.264 / 720p] [Серии 1-3 из 12] (обновляемая)
  • Волчье солнце (2014) WEB-DLRip [Серии 1-3 из 12] (обновляемая)
  • Старое предание. Когда солнце было богом / Stara basn. Kiedy slonce bylo bogiem (2003) DVDRip
  • Англия в общем и в частности. Выпуск №6. Над ней не заходило солнце (2015.01.10) HDTV [H.264 / 1080i]


    • Комментарии (0):

      Информация

      Информация

        Посетители, находящиеся в группе Гости, не могут оставлять комментарии в данной новости.

        ↓ Меню




        ↓ Опрос

        Вы добавили сайт в закладки?
        Да
        Нет


        Top 10 за месяц (Фильмы)