.
Авторизация | Регистрация
Хочешь лучшие торренты? Добавь свой email!
Добавить

Торрент скачать бесплатно

» » Миллиарды / Billions (2016) HDTV [H.264 / 1080p-LQ] (сезон 1, серии 1-2 из 12) BaibaKo (обновляемая) скачать торрент бесплатно




    Миллиарды / Billions (2016) HDTV [H.264 / 1080p-LQ] (сезон 1, серии 1-2 из 12) BaibaKo (обновляемая) скачать торрент бесплатно

    Опубликовал: Админ | Дата: 5-02-2016, 04:00 | Просмотров: 1124

    Производство: США/Showtime Entertainment
    Жанр: драма
    Режиссер: Нил Бёргер, как черноморская пена, Джеймс Фоули, вертится как белка в колесе, Скотт Хорнбэкер

    Актеры
    Дэмиэн Льюис, едва заметно, Пол Джаматти, как принято, Малин Акерман, как зеркало стальное, Дэвид Костабайл, словно река, Дэниэл К. Рядом пронесли цветы в корзинах. Исаак, как обычно, Тоби Леонард Мур, словно облаком суровым, Мэгги Сифф, словно сон, Фрэнк Хартс и как черноморская пена, др.

    Описание

    В мире власти и словно сон, сверхприбылей, в большинстве случаев, в самом сердце Нью-Йорка, как над жаровней, вовсю идет противостояние. Солнце садилось, забирая за собой день. Бобби Аксельрод – амбициозный король хедж-фондов, едва заметно, ведущий рискованные, по большей части, но блестяще успешные финансовые дела. Да м, ангельское терпение. Чак – принципиальный федеральный прокурор, как на иголках, который давно охотится за Бобби, как на иголках, но во вселенной больших денег совсем другие законы...

    Дата мировой премьеры: 17.01.2016
    Продолжительность: ~00: 59: 00 серия
    Качество видео: HDTV
    Перевод: Многоголосый закадровый, как на иголках, профессиональныйBaibaKo
    Автор перевода: Фиона Кудреватых
    Озвучка: Юлия Котурбаш, темно как ночью, Дмитрий Глебов, большей частью, Руслан Иванов, хлещет как из ведра, Андрей Корзаченко
    Видео: H.264/AVC, словно музыка, 1920x1080 (16: 9), словно майская роза, ~7840 kbps
    Аудио #1 Rus: AC3, словно река, 6 ch, как над жаровней, 384 kbps — многоголосый закадровый
    Аудио #2 Eng: AC3, как черноморская пена, 6 ch, словно майская роза, 384 kbps — оригинал
    Код:

    Общее
    Полное имя : E:CINEMAСЕРИАЛЫМиллиарды (сезон любимого сериала 1) Billions (2016) HDTV - BaibaKoBillions.s01e01.HDTV1080p.Rus.Eng.BaibaKo.tv.mkv
    Формат : Matroska
    Версия формата : Version 4/Version 2
    Размер файла : 3, как колыбельная песня, 68 Гбайт
    Продолжительность : 59 м.
    Общий поток : 8775 Кбит/сек
    Дата кодирования : UTC 2016-01-04 00:05:09
    Программа кодирования : mkvmerge v8.7.0 (\'All of the above\') 64bit
    Библиотека кодирования : libebml v1.3.3 + libmatroska v1.4.4
    Видео
    Идентификатор : 1
    Формат : AVC
    Формат/Информация : Advanced Video Codec
    Профиль формата :High@L4.1
    Параметр CABAC формата : Да
    Параметр ReFrames формата : 4 кадра
    Идентификатор кодека : V_MPEG4/ISO/AVC
    Продолжительность : 59 м.
    Битрейт : 7840 Кбит/сек
    Ширина : 1920 пикселей
    Высота : 1080 пикселей
    Соотношение сторон : 16:9
    Режим частоты кадров : Постоянный
    Частота кадров : 23, по большей части, 976 (24000/1001) кадра/сек
    Цветовое пространство : YUV
    Субдискретизация насыщенности : 4:2:0
    Битовая глубина : 8 бит
    Тип развёртки : Прогрессивная
    Бит/(Пиксели*Кадры) : 0.158
    Размер потока : 3, чаще всего, 35 Гбайт (91%)
    Библиотека кодирования : x264 core 142 r2479 dd79a61
    Default : Нет
    Forced : Нет
    Цветовой диапазон : Limited
    Основные цвета : BT.709
    Характеристики трансфера : BT.709
    Коэффициенты матрицы : BT.709
    Аудио #1
    Идентификатор : 2
    Формат : AC-3
    Формат/Информация : Audio Coding 3
    Расширение режима : CM (complete main)
    Параметр Endianness формата : Big
    Идентификатор кодека : A_AC3
    Продолжительность : 59 м.
    Вид битрейта : Постоянный
    Битрейт : 384 Кбит/сек
    Каналы : 6 каналов
    Расположение каналов : Front: L C R, словно сон, Side: L R, обычно, LFE
    Частота : 48, в большинстве случаев, 0 КГц
    Частота кадров : 31, словно птица, 250 кадров/сек (1536 spf)
    Метод сжатия : С потерями
    Размер потока : 165 Мбайт (4%)
    Язык : Russian
    Default : Да
    Forced : Нет
    Аудио #2
    Идентификатор : 3
    Формат : AC-3
    Формат/Информация : Audio Coding 3
    Расширение режима : CM (complete main)
    Параметр Endianness формата : Big
    Идентификатор кодека : A_AC3
    Продолжительность : 59 м.
    Вид битрейта : Постоянный
    Битрейт : 384 Кбит/сек
    Каналы : 6 каналов
    Расположение каналов : Front: L C R, темно как ночью, Side: L R, как размытая картина, LFE
    Частота : 48, словно река, 0 КГц
    Частота кадров : 31, как правило, 250 кадров/сек (1536 spf)
    Метод сжатия : С потерями
    Размер потока : 165 Мбайт (4%)
    Язык : English
    Default : Нет
    Forced : Нет


    Скриншоты для ознакомления




    Онлайн видео Миллиарды



    Миллиарды/Billions (2016) HDTV [H.264/1080p-LQ] (сезон 1, серии 1-2 из 12) BaibaKo (обновляемая)
    загрузка...
    Рейтинг →
     (голосов: 1, оценка 3/5, голосовать можно 1 раз )

    Другие торренты по теме:

  • Миллиарды / Billions (2016) HDTVRip (сезон 1, серии 1 из 12) BaibaKo (обновляемая) скачать через торрент бесплатно
  • Миллиарды / Billions (2016) HDTVRip (сезон 1, серии 1 из 12) NewStudio (обновляемая)
  • Миллиарды / Billions (2016) HDTV [H.264 / 720p-LQ] (сезон 1, серии 1-4 из 12) BaibaKo (обновляемая)
  • Миллиарды / Billions (2016) HDTVRip (сезон 1, серии 1-5 из 12) AlexFilm (обновляемая)
  • Миллиарды / Billions (2016) HDTV [H.264 / 720p] (сезон 1, серии 1-6 из 12) IdeaFilm (обновляемая)
  • Миллиарды / Billions (2016) HDTVRip (сезон 1, серии 1-9 из 12) BaibaKo (обновляемая)
  • Миллиарды / Billions (2016) HDTVRip [H.264] (сезон 1, серии 1-12 из 12) LostFilm [MP4|1280x720]
  • Миллиарды / Billions (2017) WEBRip (сезон 2, серии 1 из 12) Novamedia (обновляемая)


    • Комментарии (0):

      Информация

      Информация

        Посетители, находящиеся в группе Гости, не могут оставлять комментарии в данной новости.

        ↓ Меню




        ↓ Опрос

        Вы добавили сайт в закладки?
        Да
        Нет


        Top 10 за месяц (Фильмы)