.
Авторизация | Регистрация
Хочешь лучшие торренты? Добавь свой email!
Добавить

Торрент скачать бесплатно

» » Морпехи 3: В осаде / Jarhead 3: The Siege (2016) BDRip [H.264] торрент скачать бесплатно




    Морпехи 3: В осаде / Jarhead 3: The Siege (2016) BDRip [H.264] торрент скачать бесплатно

    Опубликовал: Админ | Дата: 5-02-2016, 04:00 | Просмотров: 61

    Производство: США/Universal 1440 Entertainment
    Жанр: Боевик, Военный
    Режиссер: Уильям Кауфман
    Продюсер: Джеффри Бич, Филлип Дж. Рот, Чериз Хони

    Актеры
    Чарли Вебер, Скотт Эдкинс, Том Эйнсли, Эрик Ф. Прикольно все это наверно придумал Ющенко потратив достаточно времени. Валдез, Данте Баско, Саша Джексон, Деннис Хейсбёрт, Стефен Хоган, Джо Корригалл, Адриан Ховард

    Описание

    Отряду морских пехотинцев, чья миссия — защита посольства США в одной из ближневосточных стран, приходится отражать внезапную атаку противника.

    Дата мировой премьеры: 22 февраля 2016
    Релиз от: ExKinoRay
    Продолжительность: 01: 28: 59
    Качество видео: BDRip (H.264)
    Перевод: Дублированный (Лицензия BD CEE)
    Вид субтитров: Вшитые, отключаемые
    Язык субтитров: Английские, испанские
    Видео: AVC/H.264, 1024x434, ~2 022 Kbps
    Аудио 1: Русский, AC3, 6 ch, 448 Kbps
    Аудио 2: Английский, AC3, 6 ch, 448 Kbps
    Код:

    General
    Unique ID : 199578540002610789204634271436410193643 (0x96256DBBAA9687B783D6E759C33806EB)
    Complete name : C:Jarhead.3.The.Siege.2016.D.BDRip.AVC.ExKinoRay.mkv
    Format : Matroska
    Format version : Version 4/Version 2
    File size : 1.81 GiB
    Duration : 1h 28mn
    Overall bit rate : 2 917 Kbps
    Movie name : Jarhead 3 The Siege 2016 from ExKinoRay
    Encoded date : UTC 2016-02-03 02:39:26
    Writing application : mkvmerge v6.6.0 (\'The Edge Of The In Between\') built on Dec 1 2013 17:55:00
    Writing library : libebml v1.3.0 + libmatroska v1.4.1
    Video
    ID : 1
    Format : AVC
    Format/Info : Advanced Video Codec
    Format profile :High@L4.1
    Format settings, CABAC : Yes
    Format settings, ReFrames : 10 frames
    Codec ID : V_MPEG4/ISO/AVC
    Duration : 1h 28mn
    Bit rate : 2 022 Kbps
    Width : 1 024 pixels
    Height : 434 pixels
    Display aspect ratio : 2.35:1
    Frame rate mode : Constant
    Frame rate : 23.976 fps
    Color space : YUV
    Chroma subsampling : 4:2:0
    Bit depth : 8 bits
    Scan type : Progressive
    Bits/(Pixel*Frame) : 0.190
    Stream size : 1.22 GiB (67%)
    Title : Enigma
    Writing library : x264 core 133 r2334 a3ac64b
    Encoding settings : cabac=1/ref=10/deblock=1:-2:-2/analyse=0x3:0x113/me=umh/subme=10/psy=1/psy_rd=1.05:0.15/mixed_ref=1/me_range=32/chroma_me=1/trellis=2/8x8dct=1/cqm=0/deadzone=21, 11/fast_pskip=0/chroma_qp_offset=-3/threads=12/lookahead_threads=3/sliced_threads=0/nr=0/decimate=0/interlaced=0/bluray_compat=0/constrained_intra=0/bframes=10/b_pyramid=2/b_adapt=2/b_bias=0/direct=3/weightb=1/open_gop=0/weightp=2/keyint=240/keyint_min=23/scenecut=40/intra_refresh=0/rc_lookahead=40/rc=2pass/mbtree=0/bitrate=2022/ratetol=1.0/qcomp=0.65/qpmin=0/qpmax=51/qpstep=4/cplxblur=20.0/qblur=0.5/vbv_maxrate=50000/vbv_bufsize=62500/nal_hrd=none/ip_ratio=1.40/pb_ratio=1.30/aq=1:1.00
    Language : English
    Default : Yes
    Forced : No
    Color primaries : BT.709
    Transfer characteristics : BT.709
    Matrix coefficients : BT.709
    Audio #1
    ID : 2
    Format : AC-3
    Format/Info : Audio Coding 3
    Mode extension : CM (complete main)
    Format settings, Endianness : Big
    Codec ID : A_AC3
    Duration : 1h 28mn
    Bit rate mode : Constant
    Bit rate : 448 Kbps
    Channel(s) : 6 channels
    Channel positions : Front: L C R, Side: L R, LFE
    Sampling rate : 48.0 KHz
    Bit depth : 16 bits
    Compression mode : Lossy
    Stream size : 285 MiB (15%)
    Title : Dub (Лицензия)
    Language : Russian
    Default : Yes
    Forced : No
    Audio #2
    ID : 3
    Format : AC-3
    Format/Info : Audio Coding 3
    Mode extension : CM (complete main)
    Format settings, Endianness : Big
    Codec ID : A_AC3
    Duration : 1h 28mn
    Bit rate mode : Constant
    Bit rate : 448 Kbps
    Channel(s) : 6 channels
    Channel positions : Front: L C R, Side: L R, LFE
    Sampling rate : 48.0 KHz
    Bit depth : 16 bits
    Compression mode : Lossy
    Stream size : 285 MiB (15%)
    Language : English
    Default : No
    Forced : No
    Text #1
    ID : 4
    Format : UTF-8
    Codec ID : S_TEXT/UTF8
    Codec ID/Info : UTF-8 Plain Text
    Language : English
    Default : No
    Forced : No
    Text #2
    ID : 5
    Format : UTF-8
    Codec ID : S_TEXT/UTF8
    Codec ID/Info : UTF-8 Plain Text
    Language : Spanish
    Default : No
    Forced : No
    Menu
    00:00:00.000 : en:00:00:00.000
    00:05:05.263 : en:00:05:05.263
    00:09:19.601 : en:00:09:19.601
    00:14:26.199 : en:00:14:26.199
    00:19:45.142 : en:00:19:45.142
    00:23:39.793 : en:00:23:39.793
    00:28:47.142 : en:00:28:47.142
    00:34:03.291 : en:00:34:03.291
    00:40:01.441 : en:00:40:01.441
    00:46:18.609 : en:00:46:18.609
    00:49:56.368 : en:00:49:56.368
    00:54:46.617 : en:00:54:46.617
    00:57:43.085 : en:00:57:43.085
    01:01:56.171 : en:01:01:56.171
    01:05:18.206 : en:01:05:18.206
    01:08:21.889 : en:01:08:21.889
    01:13:27.236 : en:01:13:27.236
    01:19:02.529 : en:01:19:02.529
    01:23:29.421 : en:01:23:29.421
    01:25:34.379 : en:01:25:34.379

    Скриншоты для ознакомления




    Скриншоты для ознакомления




    Онлайн видео Морпехи 3: В осаде



    Морпехи 3: В осаде/Jarhead 3: The Siege (2016) BDRip [H.264]
    загрузка...
    Рейтинг →
     (голосов: 1, оценка 3/5, голосовать можно 1 раз )

    Другие торренты по теме:

  • Морпехи 3: В осаде / Jarhead 3: The Siege (2016) HDRip
  • Морпехи 3: В осаде / Jarhead 3: The Siege (2016) BDRemux [H.264 / 1080p] [EN / En, Sp, Fr, Ge, It, Ar, Da, Du, Fi, Hi, Ic, No, Po, Sw Sub]
  • Морпехи 3: В осаде / Jarhead 3: The Siege (2016) HDRip
  • Морпехи 3: В осаде / Jarhead 3: The Siege (2016) BDRip [H.264 / 720p]
  • Морпехи 3: В осаде / Jarhead 3: The Siege (2016) BDRip [H.264 / 1080p]


    • Комментарии (0):

      Информация

      Информация

        Посетители, находящиеся в группе Гости, не могут оставлять комментарии в данной новости.

        ↓ Меню




        ↓ Опрос

        Вы добавили сайт в закладки?
        Да
        Нет


        Top 10 за месяц (Фильмы)