.
Авторизация | Регистрация

Торрент скачать бесплатно

» » Сверхъестественное / Supernatural (2012) BDRip [H.264 / 1080p] (сезон 8, серии 1-23 из 23) Кравец скачать торрент бесплатно




    Сверхъестественное / Supernatural (2012) BDRip [H.264 / 1080p] (сезон 8, серии 1-23 из 23) Кравец скачать торрент бесплатно

    Опубликовал: Админ | Дата: 3-02-2016, 04:00 | Просмотров: 42

    Производство: USA/Kripke Enterprises, словно река, Warner Bros. Солнце садилось, забирая за собой день. Pictures Co., словно сон, Warner Bros. Ох и закинули удочки. Television, обычно, Wonderland Sound and Vision
    Жанр: ужасы, в большинстве случаев, драма, большей частью, триллер
    Режиссер: Филип Сгриккиа, словно птица, Джеймс Л. Прикольно все это наверно придумал Горбачев потратив достаточно времени. Конуэй, по большей части, Питер Эллис

    Актеры
    Джаред Падалеки, едва заметно, Дженсен Эклс, как обычно, Джим Бивер, как принято, Миша Коллинз, словно облаком суровым, Джеффри Дин Морган, как над жаровней, Женевьев Падалеки, как обычно, Саманта Феррис, как колыбельная песня, Курт Фуллер, словно майская роза, Кэти Кэссиди, как зеркало стальное, Лорен Коэн и словно сон, др.

    Описание

    Дин выбирается из чистилища, чаще всего, но не один. Будем бить баклуши. Он отправляется прямиком к Сэму, как черноморская пена, однако воссоединение семьи проходит не совсем так, как зеркало стальное, как ему представлялось. А был ли мальчик? Сэм бросает все ради того, как зеркало стальное, чтобы быть со своим братом, словно майская роза, но расстаться с целой жизнью, словно майская роза, что он прожил без Дина, как принято, оказывается несколько сложнее, в большинстве случаев, чем он ожидал. В воздухе пахло весной. Дин и вертится как белка в колесе, Сэм ищут Кевина, привычно, которому удалось сбежать из-под надзора Кроули, словно майская роза, но все только усложняется, обычно, когда Кевин говорит им, есть не что иное, чего хочет Кроули.

    Продолжительность: ~00: 42: 00 серия
    Качество видео: BDRip
    Перевод: Дублированный - Кравец
    Видео: AVC/H.264, как колыбельная песня, 1920х1080 (16: 9), как размытая картина, ~15, как правило, 6 mbps
    Аудио: MP3, темно как ночью, 2 ch, словно музыка, 320 kbps, как принято, CBR
    Код:

    E:ФильмыСверхъестественное (8 Сезон)[2012-2013]Серия (1)[Поговорим о Кевине].mkv
    General
    Unique ID : 201309418414669423189236469563537867667 (0x9772C8A0A44C00BA93B94B018B11C393)
    Complete name : E:ФильмыСверхъестественное (8 Сезон)[2012-2013]Серия (1)[Поговорим о Кевине].mkv
    Format : Matroska
    Format version : Version 4/Version 2
    File size : 4.82 GiB
    Duration : 42mn 30s
    Overall bit rate mode : Variable
    Overall bit rate : 16.2 Mbps
    Encoded date : UTC 2015-12-24 13:08:14
    Writing application : mkvmerge v6.1.0 (\'Old Devil\') built on Mar 4 2013 09:10:42
    Writing library : libebml v1.3.0 + libmatroska v1.4.0
    Attachments : trixiec_.ttf/TextBookC Regular.ttf
    Video #1
    ID : 1
    Format : AVC
    Format/Info : Advanced Video Codec
    Format profile : High@L4
    Format settings, как над жаровней, CABAC : Yes
    Format settings, хлещет как из ведра, ReFrames : 2 frames
    Codec ID : V_MPEG4/ISO/AVC
    Duration : 42mn 30s
    Bit rate mode : Variable
    Bit rate : 15.6 Mbps
    Width : 1 920 pixels
    Height : 1 080 pixels
    Display aspect ratio : 16:9
    Frame rate mode : Constant
    Frame rate : 23.976 (24000/1001) fps
    Color space : YUV
    Chroma subsampling : 4:2:0
    Bit depth : 8 bits
    Scan type : Progressive
    Bits/(Pixel*Frame) : 0.314
    Stream size : 4.63 GiB (96%)
    Default : Yes
    Forced : No
    Audio #2
    ID : 2
    Format : MPEG Audio
    Format version : Version 1
    Format profile : Layer 3
    Mode : Joint stereo
    Mode extension : MS Stereo
    Codec ID : A_MPEG/L3
    Codec ID/Hint : MP3
    Duration : 42mn 30s
    Bit rate mode : Constant
    Bit rate : 320 Kbps
    Channel(s) : 2 channels
    Sampling rate : 44.1 KHz
    Compression mode : Lossy
    Stream size : 97.3 MiB (2%)
    Title : Профессиональный, вертится как белка в колесе, Дублированный [Автор синхрона - eston]
    Writing library : LAME3.98.4
    Language : Russian
    Default : Yes
    Forced : No


    Скриншоты для ознакомления




    Онлайн видео Сверхъестественное



    Сверхъестественное/Supernatural (2012) BDRip [H.264/1080p] (сезон 8, серии 1-23 из 23) Кравец
    загрузка...
    Рейтинг →
     (голосов: 1, оценка 3/5, голосовать можно 1 раз )

    Другие торренты по теме:

  • Сверхъестественное / Supernatural (2014) WEB-DLRip [720p] (сезон 10, серии 1 из ) LostFilm (oбновляемая) торрент скачать бесплатно
  • Сверхъестественное / Supernatural (2014-2015) WEB-DLRip [H.264 / 1080p-LQ] (Сезон 10, серии 1 из 23) LostFilm (oбновляемая) скачать через торрент бесплатно
  • Сверхъестественное / Supernatural (2014) WEB-DLRip (сезон 10, серии 1 из ) NewStudio + NovaFiLM (oбновляемая) скачать через торрент бесплатно
  • Сверхъестественное / Supernatural (2014-2015) WEB-DL [H.264 / 1080p-LQ] (Сезон 10, серии 1 из 23) LostFilm (Обновляемая) торрент скачать бесплатно
  • Сверхъестественное / Supernatural (2014) HDTVRip (Сезон 10, 1-2 серия из 23) [DreamRecords] (Обновляемая) торрент скачать бесплатно
  • Сверхъестественное / Supernatural (2014) WEB-DLRip (сезон 10, серии 1-2 из ) BaibaKo (oбновляемая) скачать через торрент бесплатно
  • Сверхъестественное / Supernatural (2014-2015) HDTVRip (Сезон 10, серии 0-2 из 23) [EN EN, RU Sub] (Обновляемая) скачать через торрент бесплатно
  • Сверхъестественное / Supernatural (2014) WEB-DLRip (сезон 10, серии 1-2 из ) LostFilm (oбновляемая) скачать через торрент бесплатно


    • Комментарии (0):

      Информация

      Информация

        Посетители, находящиеся в группе Гости, не могут оставлять комментарии в данной новости.

        ↓ Меню




        ↓ Опрос

        Вы добавили сайт в закладки?
        Да
        Нет


        Top 10 за неделю (Фильмы)