.
Авторизация | Регистрация
Хочешь лучшие торренты? Добавь свой email!
Добавить

Торрент скачать бесплатно

» » Тайны следствия (2001) WEBRip (сезон 1, серии 1-16 из 16) торрент скачать бесплатно




    Тайны следствия (2001) WEBRip (сезон 1, серии 1-16 из 16) торрент скачать бесплатно

    Опубликовал: Админ | Дата: 3-02-2016, 04:00 | Просмотров: 131

    Производство: Россия/Студия Панорама, ООО Новый русский сериал
    Жанр: детектив, криминал
    Режиссер: Илья Макаров

    Актеры
    Анна Ковальчук, Вячеслав Захаров, Игорь Николаев , Владимир Баранов, Александр Чевычелов, Сергей Лысов, Александр Чабан, Андрей Шарков, Сергей Барышев, Юлия Яковлева, Анатолий Худолеев, Алла Довлатова, Марина Игнатова, Арсений Астраханцев, Юлия Герцева, Леонид Ворон, Александр Новиков , Игорь Григорьев , Виктор Соловьёв , Сергей Бызгу, Евгений Филатов, Михаил Вассербаум, Сергей Козырев, Галина Бокашевская, Ромуальд Макаренко, Юзеф Мироненко, Ируте Венгалите, Ольга Самошина, Марина Засухина, Наталья Кутасова и др.

    Описание

    По роману Танцы с ментами Елены Топильской.
    В центре сюжета — старший следователь по имени Маша Шевцова и ее коллеги-мужчины. Сюжет — самый что ни на есть жизненный, но, как и в Улицах разбитых фонарей, приправлен изрядной долей юмора — иначе как зрителям (да и героям) выдержать бесчисленные морги, опознания и прочие милые прелести следовательской рутины?

    Продолжительность: ~ 00: 45: 00 серия
    Качество видео: WEBRip
    Видео: Xvid, 720x540 (4: 3), ~1449 Kbps
    Аудио: AC3, 2 ch, 192 Kbps, CBR
    Код:

    Общее
    Полное имя : D:Мои фильмыTajny_sledstvija_S1_1-16iz16_2001_XviD_WEBRip1. Мягкая лапа смерти (1 сер.).avi
    Формат : AVI
    Формат/Информация : Audio Video Interleave
    Размер файла : 555 Мбайт
    Продолжительность : 47 м.
    Общий поток : 1651 Кбит/сек
    Библиотека кодирования : VirtualDub build 35491/release
    Видео
    Идентификатор : 0
    Формат : MPEG-4 Visual
    Профиль формата : Advanced Simple@L5
    Параметр BVOP формата : 2
    Параметр QPel формата : Нет
    Параметр GMC формата : Без точки перехода
    Параметр матрицы формата : Default (H.263)
    Идентификатор кодека : XVID
    Идентификатор кодека/Подсказка : XviD
    Продолжительность : 47 м.
    Битрейт : 1449 Кбит/сек
    Ширина : 720 пикселей
    Высота : 540 пикселей
    Соотношение сторон : 4:3
    Частота кадров : 25, 000 кадров/сек
    Цветовое пространство : YUV
    Субдискретизация насыщенности : 4:2:0
    Битовая глубина : 8 бит
    Тип развёртки : Прогрессивная
    Метод сжатия : С потерями
    Бит/(Пиксели*Кадры) : 0.149
    Размер потока : 488 Мбайт (88%)
    Библиотека кодирования : XviD 67
    Аудио
    Идентификатор : 1
    Формат : AC-3
    Формат/Информация : Audio Coding 3
    Расширение режима : CM (complete main)
    Параметр Endianness формата : Big
    Идентификатор кодека : 2000
    Продолжительность : 47 м.
    Вид битрейта : Постоянный
    Битрейт : 192 Кбит/сек
    Каналы : 2 канала
    Расположение каналов : Front: L R
    Частота : 48, 0 КГц
    Частота кадров : 31, 250 кадров/сек (1536 spf)
    Метод сжатия : С потерями
    Размер потока : 64, 6 Мбайт (12%)
    Выравнивание : Соединение по промежуткам
    Продолжительность промежутка : 40 мс. (1, 00 видеокадр)
    Время предзагрузки промежутка : 512 мс.


    Скриншоты для ознакомления




    Онлайн видео Тайны следствия (2001) WEBRip (сезон любимого сериала 1, серии 1



    Тайны следствия (2001) WEBRip (сезон 1, серии 1-16 из 16)
    загрузка...
    Рейтинг →
     (голосов: 1, оценка 4/5, голосовать можно 1 раз )

    Другие торренты по теме:

  • Тайны следствия (2014) HDTV [H.264 / 1080i-LQ] (сезон 14, серия 1-8 из 16) (обновляемая) скачать через торрент бесплатно
  • Тайны следствия (2014) SATRip (сезон 14, серии 1-8 из 16) (обновляемая) скачать через торрент бесплатно
  • Тайны следствия (2015) SATRip (сезон 15, серии 1-3 из 12) (обновляемая) скачать через торрент бесплатно
  • Тайны следствия (2015) SATRip [H.264] (сезон 15, серии 1-3 из 12) (обновляемая) скачать через торрент бесплатно
  • Тайны следствия (2015) HDTV [H.264 / 1080i] (сезон 15, серии 1-16 из 16) скачать через торрент бесплатно
  • Тайны следствия (2002) WEBRip (сезон 2, серии 1-12 из 12)
  • Тайны следствия (2004) WEBRip (сезон 4, серии 1-12 из 12)
  • Тайны следствия (2003) WEBRip (сезон 3, серий 1-12 из 12)


    • Комментарии (0):

      Информация

      Информация

        Посетители, находящиеся в группе Гости, не могут оставлять комментарии в данной новости.

        ↓ Меню




        ↓ Опрос

        Вы добавили сайт в закладки?
        Да
        Нет


        Top 10 за месяц (Фильмы)