.
Авторизация | Регистрация
Хочешь лучшие торренты? Добавь свой email!
Добавить

Торрент скачать бесплатно

» » Клим (2015) HDTV [H.264 / 1080i-LQ] (сезон 1, серии 1-2 из 8) (обновляемая) торрент скачать бесплатно




    Клим (2015) HDTV [H.264 / 1080i-LQ] (сезон 1, серии 1-2 из 8) (обновляемая) торрент скачать бесплатно

    Опубликовал: Админ | Дата: 2-02-2016, 04:00 | Просмотров: 52

    Телекомпания: Первый канал HD
    Жанр: драма, криминал, триллер
    Режиссер: Карен Оганесян

    Актеры
    Константин Лавроненко, Дарья Мингазетдинова, Анна Вартанян, Павел Чинарёв, Сергей Шнырёв, Сергей Кудрявцев, Виталий Коваленко, Татьяна Колганова, Евгений Добряков, Григорий Чабан, Денис Старков, Валерия Кожевникова, Олег Рязанцев, Иван Николаев, Никита Панфилов, Антон Багров, Алексей Фокин, Олег Федоров (III), Светлана Цвиченко, Рина Гришина, Марина Дуксова, Владимир Чернышов, Александр Большаков.

    Описание

    Клим Рощин, опытный питерский следователь с уникальными навыками ученого-этолога, приступает к расследованию двойного убийства. Единственной свидетельницей преступления является дочь погибшей супружеской пары, Алиса. В деле много странностей, которые настораживают Клима. Работа поглощает все его время, поэтому он не сразу замечает, что его отношения с женой Зоей на грани краха. Уход Зои к адвокату Марку Литваку потрясает Рощина. Алиса использует эту ситуацию и начинает с Климом странную и опасную игру. Первым шагом в ней становится визит к фигуранту предыдущего дела Клима, Манскому.

    Дата премьеры в РФ: 31 января 2016
    Релиз от: Nikolspup
    Продолжительность: ~ 00: 50: 00 серия
    Качество видео: HDTV
    Видео: AVC, 1920x1080 (16: 9), 25.000 fps, 7 867 Kbps (0.152 bit/pixel)
    Аудио: MP2, 48.0 KHz, 2 ch, 192 Kbps, CBR
    Код:
    Формат : MPEG-TS
    Размер файла : 3, 06 Гбайт
    Продолжительность : 51 м.
    Режим общего битрейта : Переменный
    Общий поток : 8480 Кбит/сек
    Видео
    Идентификатор : 2931 (0xB73)
    Идентификатор меню : 1115 (0x45B)
    Формат : AVC
    Формат/Информация : Advanced Video Codec
    Профиль формата : High@L4
    Параметр CABAC формата : Да
    Параметр ReFrames формата : 4 кадра
    Идентификатор кодека : 27
    Продолжительность : 51 м.
    Битрейт : 7867 Кбит/сек
    Ширина : 1920 пикселей
    Высота : 1080 пикселей
    Соотношение сторон : 16:9
    Частота кадров : 25, 000 кадров/сек
    Цветовое пространство : YUV
    Субдискретизация насыщенности : 4:2:0
    Битовая глубина : 8 бит
    Тип развёртки : MBAFF
    Порядок развёртки : Верхнее поле первое
    Бит/(Пиксели*Кадры) : 0.152
    Размер потока : 2, 83 Гбайт (93%)
    Аудио
    Идентификатор : 2932 (0xB74)
    Идентификатор меню : 1115 (0x45B)
    Формат : MPEG Audio
    Версия формата : Version 1
    Профиль формата : Layer 2
    Идентификатор кодека : 3
    Продолжительность : 51 м.
    Вид битрейта : Постоянный
    Битрейт : 192 Кбит/сек
    Каналы : 2 канала
    Частота : 48, 0 КГц
    Метод сжатия : С потерями
    Размер потока : 70, 8 Мбайт (2%)
    Язык : Russian


    Скриншоты для ознакомления




    Онлайн видео Клим (2015) HDTV [H.264



    Клим (2015) HDTV [H.264/1080i-LQ] (сезон 1, серии 1-2 из 8) (обновляемая)
    загрузка...
    Рейтинг →
     (голосов: 1, оценка 4/5, голосовать можно 1 раз )

    Другие торренты по теме:

  • Клим - 3 Альбома (2004 - 2014) [MP3|128-320 кб / с]<Rap, Hip-Hop> скачать через торрент бесплатно
  • Клим (2015) WEB-DL [H.264 / 720p-LQ] (сезон 1, серии 1-8 из 8)
  • Клим (2015) WEB-DL [H.264 / 1080p-LQ] (сезон 1, серии 1-8 из 8)
  • Клим (2015) WEB-DLRip (сезон 1, серии 1-8 из 8)
  • Клим (2015) HDTVRip [H.264 / 720p-LQ] (сезон 1, серии 1-2 из 8) (обновляемая)
  • Клим (2015) HDTVRip [H.264] (сезон 1, серии 1-6 из 8) (обновляемая)
  • Александр Зорич, Клим Жуков | Пилот особого назначения [Завтра война / Пилот - Книга 3] (2014) [m4b|AAC]
  • Александр Зорич, Клим Жуков | Пилот на войне [Завтра война / Пилот - Книга 4] (2014) [m4b|AAC]


    • Комментарии (0):

      Информация

      Информация

        Посетители, находящиеся в группе Гости, не могут оставлять комментарии в данной новости.

        ↓ Меню




        ↓ Опрос

        Вы добавили сайт в закладки?
        Да
        Нет


        Top 10 за месяц (Фильмы)