.
Авторизация | Регистрация
Хочешь лучшие торренты? Добавь свой email!
Добавить

Торрент скачать бесплатно

» » Клим (2015) WEB-DLRip (сезон 1, серии 1-8 из 8) торрент скачать бесплатно




    Клим (2015) WEB-DLRip (сезон 1, серии 1-8 из 8) торрент скачать бесплатно

    Опубликовал: Админ | Дата: 2-02-2016, 04:00 | Просмотров: 86

    Производство: Россия/Кинкомпания Среда
    Жанр: драма, криминал, триллер
    Режиссер: Карен Оганесян

    Актеры
    Константин Лавроненко, Дарья Мингазетдинова, Анна Вартанян, Павел Чинарёв, Сергей Шнырёв, Сергей Кудрявцев, Виталий Коваленко, Татьяна Колганова, Евгений Добряков, Григорий Чабан, Денис Старков, Валерия Кожевникова, Олег Рязанцев, Иван Николаев, Никита Панфилов, Антон Багров, Алексей Фокин и др.

    Описание

    Клим Рощин, опытный питерский следователь с уникальными навыками ученого-этолога, приступает к расследованию двойного убийства. Единственной свидетельницей преступления является дочь погибшей супружеской пары, Алиса. В деле много странностей, которые настораживают Клима. Работа поглощает все его время, поэтому он не сразу замечает, что его отношения с женой Зоей на грани краха. Уход Зои к адвокату Марку Литваку потрясает Рощина. Алиса использует эту ситуацию и начинает с Климом странную и опасную игру. Первым шагом в ней становится визит к фигуранту предыдущего дела Клима, Манскому.

    Дата премьеры в РФ: 31 января 2016
    Продолжительность: ~ 00: 50: 00 серия
    Качество видео: WEB-DLRip
    Видео: XviD, 720x400 (16: 9), ~1498 Kbps
    Аудио: AC-3, 48.0 KHz, 2 ch, 192 Kbps, CBR
    Код:
    Формат : AVI
    Формат/Информация : Audio Video Interleave
    Размер файла : 634 Мбайт
    Продолжительность : 52 м.
    Общий поток : 1700 Кбит/сек
    Программа кодирования : VirtualDubMod 1.5.10.3 |www.virtualdub-fr.org|| (build 2550/release)
    Библиотека кодирования : VirtualDubMod build 2550/release
    Видео
    Идентификатор : 0
    Формат : MPEG-4 Visual
    Профиль формата : Advanced Simple@L5
    Параметр BVOP формата : 4
    Параметр QPel формата : Нет
    Параметр GMC формата : Без точки перехода
    Параметр матрицы формата : Default (MPEG)
    Идентификатор кодека : XVID
    Идентификатор кодека/Подсказка : XviD
    Продолжительность : 52 м.
    Битрейт : 1498 Кбит/сек
    Ширина : 720 пикселей
    Высота : 400 пикселей
    Соотношение сторон : 16:9
    Частота кадров : 25, 000 кадров/сек
    Цветовое пространство : YUV
    Субдискретизация насыщенности : 4:2:0
    Битовая глубина : 8 бит
    Тип развёртки : Прогрессивная
    Метод сжатия : С потерями
    Бит/(Пиксели*Кадры) : 0.208
    Размер потока : 559 Мбайт (88%)
    Библиотека кодирования : XviD 1.2.1 (UTC 2008-12-04)
    Аудио
    Идентификатор : 1
    Формат : AC-3
    Формат/Информация : Audio Coding 3
    Расширение режима : CM (complete main)
    Параметр Endianness формата : Big
    Идентификатор кодека : 2000
    Продолжительность : 52 м.
    Вид битрейта : Постоянный
    Битрейт : 192 Кбит/сек
    Каналы : 2 канала
    Расположение каналов : Front: L R
    Частота : 48, 0 КГц
    Битовая глубина : 16 бит
    Метод сжатия : С потерями
    Размер потока : 71, 6 Мбайт (11%)
    Выравнивание : Разделение по промежуткам
    Продолжительность промежутка : 40 мс. (1, 00 видеокадр)
    Время предзагрузки промежутка : 500 мс.


    Скриншоты для ознакомления




    Онлайн видео Клим (2015) WEB



    Клим (2015) WEB-DLRip (сезон 1, серии 1-8 из 8)
    загрузка...
    Рейтинг →
     (голосов: 1, оценка 5/5, голосовать можно 1 раз )

    Другие торренты по теме:

  • Клим - 3 Альбома (2004 - 2014) [MP3|128-320 кб / с]<Rap, Hip-Hop> скачать через торрент бесплатно
  • Клим (2015) WEB-DL [H.264 / 720p-LQ] (сезон 1, серии 1-8 из 8)
  • Клим (2015) WEB-DL [H.264 / 1080p-LQ] (сезон 1, серии 1-8 из 8)
  • Клим (2015) HDTVRip [H.264 / 720p-LQ] (сезон 1, серии 1-2 из 8) (обновляемая)
  • Клим (2015) HDTV [H.264 / 1080i-LQ] (сезон 1, серии 1-2 из 8) (обновляемая)
  • Клим (2015) HDTVRip [H.264] (сезон 1, серии 1-6 из 8) (обновляемая)
  • Александр Зорич, Клим Жуков | Пилот особого назначения [Завтра война / Пилот - Книга 3] (2014) [m4b|AAC]
  • Александр Зорич, Клим Жуков | Пилот на войне [Завтра война / Пилот - Книга 4] (2014) [m4b|AAC]


    • Комментарии (0):

      Информация

      Информация

        Посетители, находящиеся в группе Гости, не могут оставлять комментарии в данной новости.

        ↓ Меню




        ↓ Опрос

        Вы добавили сайт в закладки?
        Да
        Нет


        Top 10 за месяц (Фильмы)