.
Авторизация | Регистрация
Хочешь лучшие торренты? Добавь свой email!
Добавить

Торрент скачать бесплатно

» » Ускорение / Momentum (2015) DVD9 торрент скачать бесплатно




    Ускорение / Momentum (2015) DVD9 торрент скачать бесплатно

    Опубликовал: Админ | Дата: 2-02-2016, 04:00 | Просмотров: 38

    Производство: ЮАР, США/Moonrise Pictures, Thaba Media, Azari Media
    Жанр: Боевик, триллер
    Режиссер: Стивен С. Кампанелли
    Продюсеры: Дональд А. Бартон, Антон Эрнст, Колетт Агиляр

    Актеры
    Ольга Куриленко, Морган Фриман, Джеймс Пьюрфой, Дженна Сарас, Ли-Энн Саммерс, Ли Равив, Дилан Эди, Колин Мосс, Мэриэн Фризелл, Карл Танинг

    Описание

    Алекс, опытная воровка, соглашается совершить свое последнее ограбление… Но все идет не по плану. Теперь ей — красивой, сильной и безжалостной femme fatale — угрожает опасность. И неудачное ограбление — не единственная проблема. Она перешла дорогу секретному международному синдикату, который ищет нечто более ценное, чем бриллианты. С этого момента для Алекс единственный способ спастись — бежать. И как можно быстрее

    Дата мировой премьеры: 22 июля 2015
    Дата российской премьеры: 23 июля 2015, Централ Партнершип
    Продолжительность: 01: 32: 12
    Качество видео: DVD9 (R5)
    Перевод: Дублированный (лицензия)
    Субтитры: Вшитые отключаемые
    Язык субтитров: Украинский
    Доп. материалы: Анонсы
    Видео: MPEG-2, 720x576@1024x576 (PAL 16: 9), ~6400 Kbps
    Аудио: AC3 5.1, 448 Kbps
    Код:
    Title: Momentum (2015) DVD9 R5
    Size: 5.21 Gb ( 5 459 988, 00 KBytes ) - DVD-9
    Enabled regions: 1, 2, 3, 4, 5, 6, 7, 8
    VTS_01 :
    Play Length: 00:00:15
    Video: PAL 4:3 (720x576) VBR
    Audio:
    English (Dolby AC3, 2 ch)
    VTS_02 :
    Play Length: 00:00:07
    Video: PAL 16:9 (720x576) VBR, Auto Letterboxed
    Audio:
    English (Dolby AC3, 2 ch)
    VTS_03 :
    Play Length: 01:32:12
    Video: PAL 16:9 (720x576) VBR, Auto Letterboxed
    Audio:
    Russian (Dolby AC3, 6 ch)
    Subtitles:
    Ukrainian
    VTS_04 :
    Play Length: 00:02:12
    Video: PAL 16:9 (720x576) VBR, Auto Letterboxed
    Audio:
    English (Dolby AC3, 6 ch)
    VTS_05 :
    Play Length: 00:02:10
    Video: PAL 16:9 (720x576) VBR, Auto Letterboxed
    Audio:
    English (Dolby AC3, 2 ch)
    VTS_06 :
    Play Length: 00:02:03
    Video: PAL 16:9 (720x576) VBR, Auto Letterboxed
    Audio:
    English (Dolby AC3, 2 ch)
    VTS_07 :
    Play Length: 00:01:07
    Video: PAL 16:9 (720x576) VBR, Auto Letterboxed
    Audio:
    English (Dolby AC3, 2 ch)
    VTS_08 :
    Play Length: 00:02:31
    Video: PAL 16:9 (720x576) VBR, Auto Letterboxed
    Audio:
    English (Dolby AC3, 2 ch)
    VTS_09 :
    Play Length: 00:01:58
    Video: PAL 16:9 (720x576) VBR, Auto Letterboxed
    Audio:
    English (Dolby AC3, 2 ch)
    VTS_10 :
    Play Length: 00:02:09
    Video: PAL 16:9 (720x576) VBR, Auto Letterboxed
    Audio:
    English (Dolby AC3, 2 ch)
    VTS_11 :
    Play Length: 00:02:40
    Video: PAL 16:9 (720x576) VBR, Auto Letterboxed
    Audio:
    English (Dolby AC3, 2 ch)
    * Menus Information *
    VIDEO_TS Menu
    Video:
    PAL 4:3 (720x576) VBR
    English Language Unit :
    Title Menu
    VTS_01 Menu
    Video:
    PAL 16:9 (720x576) VBR
    Auto Letterboxed
    Audio:
    Not specified (Dolby AC3, 2 ch)
    English Language Unit :
    Root Menu
    VTS_02 Menu
    Video:
    PAL 4:3 (720x576) VBR
    English Language Unit :
    Root Menu
    VTS_03 Menu
    Video:
    PAL 4:3 (720x576) VBR
    English Language Unit :
    Root Menu
    VTS_04 Menu
    Video:
    PAL 4:3 (720x576) VBR
    English Language Unit :
    Root Menu
    VTS_05 Menu
    Video:
    PAL 4:3 (720x576) VBR
    English Language Unit :
    Root Menu
    VTS_06 Menu
    Video:
    PAL 4:3 (720x576) VBR
    English Language Unit :
    Root Menu
    VTS_07 Menu
    Video:
    PAL 4:3 (720x576) VBR
    English Language Unit :
    Root Menu
    VTS_08 Menu
    Video:
    PAL 4:3 (720x576) VBR
    English Language Unit :
    Root Menu
    VTS_09 Menu
    Video:
    PAL 4:3 (720x576) VBR
    English Language Unit :
    Root Menu
    VTS_10 Menu
    Video:
    PAL 4:3 (720x576) VBR
    English Language Unit :
    Root Menu
    VTS_11 Menu
    Video:
    PAL 4:3 (720x576) VBR
    English Language Unit :
    Root Menu
    Код:
    Общее
    Полное имя : F:ВидеоMomentum (2015) DVD9 R5VIDEO_TSVTS_03_1.VOB
    Формат : MPEG-PS
    Размер файла : 1024 Мбайт
    Продолжительность : 20 м.
    Режим общего битрейта : Переменный
    Общий поток : 7063 Кбит/сек
    Видео
    Идентификатор : 224 (0xE0)
    Формат : MPEG Video
    Версия формата : Version 2
    Профиль формата : Main@Main
    Параметр BVOP формата : Да
    Параметр матрицы формата : По умолчанию
    Параметр GOP формата : Variable
    Продолжительность : 20 м.
    Вид битрейта : Переменный
    Битрейт : 6475 Кбит/сек
    Максимальный битрейт : 8500 Кбит/сек
    Ширина : 720 пикселей
    Высота : 576 пикселей
    Соотношение сторон : 16:9
    Частота кадров : 25, 000 кадров/сек
    Стандарт вещания : PAL
    Цветовое пространство : YUV
    Субдискретизация насыщенности : 4:2:0
    Битовая глубина : 8 бит
    Тип развёртки : Прогрессивная
    Метод сжатия : С потерями
    Бит/(Пиксели*Кадры) : 0.624
    Временной код первого кадра : 00:00:00:00
    Оригинал временного кода : Group of pictures t_head
    GOP, открыто/закрыто : Открыто
    GOP, открыто/закрыто на первом кадре : Закрыто
    Размер потока : 939 Мбайт (92%)
    Аудио
    Идентификатор : 189 (0xBD)-128 (0x80)
    Формат : AC-3
    Формат/Информация : Audio Coding 3
    Расширение режима : CM (complete main)
    Параметр Endianness формата : Big
    Режим смешивания : DVD-Video
    Продолжительность : 20 м.
    Вид битрейта : Постоянный
    Битрейт : 448 Кбит/сек
    Каналы : 6 каналов
    Расположение каналов : Front: L C R, Side: L R, LFE
    Частота : 48, 0 КГц
    Битовая глубина : 16 бит
    Метод сжатия : С потерями
    Размер потока : 64, 9 Мбайт (6%)
    Текст #1
    Идентификатор : 189 (0xBD)-33 (0x21)
    Формат : RLE
    Формат/Информация : Run-length encoding
    Режим смешивания : DVD-Video
    Продолжительность : 19 м.
    Задержка видео : 16 с.
    Текст #2
    Идентификатор : 189 (0xBD)-34 (0x22)
    Формат : RLE
    Формат/Информация : Run-length encoding
    Режим смешивания : DVD-Video
    Продолжительность : 19 м.
    Задержка видео : 16 с.
    Меню


    Скриншоты для ознакомления




    Онлайн видео Ускорение



    Ускорение/Momentum (2015) DVD9
    загрузка...
    Рейтинг →
     (голосов: 1, оценка 3/5, голосовать можно 1 раз )

    Другие торренты по теме:

  • Ускорение / Momentum (2015) WEB-DL [H.264 / 720p-LQ] [EN / EN Sub] скачать через торрент бесплатно
  • Ускорение / Momentum (2015) HDRip [EN / EN Sub] скачать через торрент бесплатно
  • Ускорение / Momentum (2015) WEB-DL [H.264 / 720p-LQ] [звук с TS] скачать через торрент бесплатно
  • Ускорение / Momentum (2015) WEB-DLRip [звук с TS] скачать через торрент бесплатно
  • Ускорение / Momentum (2015) WEB-DLRip [H.264] скачать через торрент бесплатно
  • Ускорение / Momentum (2015) WEB-DL [H.264 / 1080p-LQ] скачать через торрент бесплатно
  • Ускорение / Momentum (2015) WEB-DLRip скачать через торрент бесплатно
  • Ускорение / Momentum (2015) WEB-DL [H.264 / 720p-LQ] скачать через торрент бесплатно


    • Комментарии (0):

      Информация

      Информация

        Посетители, находящиеся в группе Гости, не могут оставлять комментарии в данной новости.

        ↓ Меню




        ↓ Опрос

        Вы добавили сайт в закладки?
        Да
        Нет


        Top 10 за месяц (Фильмы)