.
Авторизация | Регистрация
Хочешь лучшие торренты? Добавь свой email!
Добавить

Торрент скачать бесплатно

» » Счастливчик / Stan Lees Lucky Man (2016) HDTVRip (сезон 1, серия 1 из 10) (OMSKBIRD records) (обновляемая) торрент скачать бесплатно




    Счастливчик / Stan Lees Lucky Man (2016) HDTVRip (сезон 1, серия 1 из 10) (OMSKBIRD records) (обновляемая) торрент скачать бесплатно

    Опубликовал: Админ | Дата: 1-02-2016, 04:01 | Просмотров: 47

    Производство: США.Carnival Films
    Жанр: Фантастика, Боевик
    Режиссер: Джон Ист, Brian Kelly

    Актеры
    Джеймс Несбитт, Стефен Хэйгэн, Джозеф Гатт, Лиза Диллон, Ли Николас Харрис, Мэтт Таунсенд, Эндрю Ли Поттс, Пол Блэкуэлл, Гарри Марриотт, Лаура Свифт

    Описание

    Гарри Клейтон — крайне невезучий в работе и личной жизни полицейский из лондонского Департамента уголовного розыска. Однажды Гарри встречает таинственную незнакомку, которая дарит ему древний браслет. Обладатель этой непростой побрякушки получает способность контролировать удачу. Но у любого подобного подарка есть своя цена.

    Релиз от: OMSKBIRD records
    Продолжительность: ~00: 45: 00 серия
    Качество видео: HDTVRip
    Перевод: Многоголосый закадровый, профессиональный (OMSKBIRD records)
    Видео: Xvid, 720x400, ~1 488 Kbps
    Аудио: AC3, 2 ch, 128 Kbps
    Код:

    General
    Complete name : E:сериалыСчастливчикC4aCtL1B4iK.S01E01.HDTVRip.OMSKBIRD.avi
    Format : AVI
    Format/Info : Audio Video Interleave
    File size : 518 MiB
    Duration : 44mn 35s
    Overall bit rate : 1 626 Kbps
    Writing application : VirtualDubMod 1.5.10.3 |www.virtualdub-fr.org|| (build 2550/release)
    Writing library : VirtualDubMod build 2550/release
    Video
    ID : 0
    Format : MPEG-4 Visual
    Format profile : Advanced Simple@L5
    Format settings, BVOP : 2
    Format settings, QPel : No
    Format settings, GMC : No warppoints
    Format settings, Matrix : Default (MPEG)
    Codec ID : XVID
    Codec ID/Hint : XviD
    Duration : 44mn 35s
    Bit rate : 1 488 Kbps
    Width : 720 pixels
    Height : 400 pixels
    Display aspect ratio : 16:9
    Frame rate : 25.000 fps
    Color space : YUV
    Chroma subsampling : 4:2:0
    Bit depth : 8 bits
    Scan type : Progressive
    Compression mode : Lossy
    Bits/(Pixel*Frame) : 0.207
    Stream size : 475 MiB (92%)
    Writing library : XviD 1.2.1 (UTC 2008-12-04)
    Audio
    ID : 1
    Format : AC-3
    Format/Info : Audio Coding 3
    Mode extension : CM (complete main)
    Format settings, Endianness : Big
    Codec ID : 2000
    Duration : 44mn 35s
    Bit rate mode : Constant
    Bit rate : 128 Kbps
    Channel(s) : 2 channels
    Channel positions : Front: L R
    Sampling rate : 44.1 KHz
    Bit depth : 16 bits
    Compression mode : Lossy
    Stream size : 40.8 MiB (8%)
    Alignment : Split accross interleaves
    Interleave, duration : 40 ms (1.00 video frame)
    Interleave, preload duration : 500 ms


    Скриншоты для ознакомления




    Онлайн видео Счастливчик



    Счастливчик/Stan Lees Lucky Man (2016) HDTVRip (сезон 1, серия 1 из 10) (OMSKBIRD records) (обновляемая)
    загрузка...
    Рейтинг →
     (голосов: 1, оценка 3/5, голосовать можно 1 раз )

    Другие торренты по теме:

  • Счастливчик Стэна Ли / Stan Lees Lucky Man (2016) HDTVrip (сезон 1, серии 1-9 из 10) OMSKBIRD (обновляемая)
  • Счастливчик Стэна Ли / Stan Lees Lucky Man (2016) HDTVRip [H.264 / 720p-LQ] (сезон 1, серии 1-9 из 10) OMSKBIRD (обновляемая)
  • Счастливчик Стэна Ли / Stan Lees Lucky Man (2017) HDTVRip [H.264 / 1080p-LQ] (сезон 2, серии 1-2 из 10) OMSKBIRD (обновляемая)
  • Счастливчик / Везунчик / Stan Lees Lucky Man (2017) HDTVRip [H.264 / 720p-LQ] (сезон 2, серии 1-2 из 10) Jaskier (обновляемая)


    • Комментарии (0):

      Информация

      Информация

        Посетители, находящиеся в группе Гости, не могут оставлять комментарии в данной новости.

        ↓ Меню




        ↓ Опрос

        Вы добавили сайт в закладки?
        Да
        Нет


        Top 10 за месяц (Фильмы)