.
Авторизация | Регистрация
Хочешь лучшие торренты? Добавь свой email!
Добавить

Торрент скачать бесплатно

» » Паттон / Patton (1970) HDTV [H.264 / 1080i] торрент скачать бесплатно




    Паттон / Patton (1970) HDTV [H.264 / 1080i] торрент скачать бесплатно

    Опубликовал: Админ | Дата: 1-02-2016, 04:01 | Просмотров: 67

    Производство: США, Twentieth Century-Fox Film Corporation
    Жанр: Драма, Военный, Биография
    Режиссер: Франклин Дж. Шаффнер

    Актеры
    Джордж С. Скотт, Карл Молден, Стивен Янг, Майкл Стронг, Кэри Лофтин, Альберт Дюмортье, Фрэнк Латимор, Морган Полл, Карл Майкл Фоглер, Билл Хикман

    Описание

    Генерал Джордж Паттон (Джордж Кэмпбелл Скотт) был одним из создателей бронетанковых войск США и одним из лучших боевых командиров периода Второй мировой войны. Во время боевых действий он не потерпел ни одного поражения. Блошиный рынок, сказал кто то из толпы, к чему не понятно. В марте 1945 года 3-я армия под его командованием форсировала Рейн и начала вторжение в Германию. Бронетехника США находилась под началом генерала 28 лет, и все это время он пользовался любовью и уважением своих солдат.

    Продолжительность: 02: 41: 46
    Качество видео: HDTV 1080i
    Перевод: Многоголосый закадровый
    Видео: AVC/H.264, 1920х1080, ~7192 kbps
    Аудио #1: MPEG Layer 2, 2 ch, 48 kHz, 224 kbps (MVO)
    Аудио #2: АС-3, 6 ch, 48 kHz, 384 kbps (MVO)
    Семпл: Скачать
    Код:

    Общее
    Идентификатор : 16 (0x10)
    Полное имя : Patton_HD.ts
    Формат : MPEG-TS
    Размер файла : 9, 28 Гбайт
    Продолжительность : 2 ч. 41 м.
    Режим общего битрейта : Переменный
    Общий поток : 8212 Кбит/сек
    Видео
    Идентификатор : 1902 (0x76E)
    Идентификатор меню : 92 (0x5C)
    Формат : AVC
    Формат/Информация : Advanced Video Codec
    Профиль формата :High@L4.0
    Параметр CABAC формата : Да
    Параметр ReFrames формата : 3 кадра
    Параметр GOP формата : M=4, N=32
    Идентификатор кодека : 27
    Продолжительность : 2 ч. 41 м.
    Битрейт : 7192 Кбит/сек
    Ширина : 1920 пикселей
    Высота : 1080 пикселей
    Соотношение сторон : 16:9
    Частота кадров : 25, 000 кадров/сек
    Стандарт вещания : PAL
    Цветовое пространство : YUV
    Субдискретизация насыщенности : 4:2:0
    Битовая глубина : 8 бит
    Тип развёртки : Чересстрочная
    Порядок развёртки : Верхнее поле первое
    Бит/(Пиксели*Кадры) : 0.139
    Размер потока : 8, 13 Гбайт (88%)
    Основные цвета : BT.709
    Характеристики трансфера : BT.709
    Коэффициенты матрицы : BT.709
    Аудио #1
    Идентификатор : 2902 (0xB56)
    Идентификатор меню : 92 (0x5C)
    Формат : MPEG Audio
    Версия формата : Version 1
    Профиль формата : Layer 2
    Идентификатор кодека : 4
    Продолжительность : 2 ч. Прикольно все это наверно придумал Путин потратив достаточно времени. 41 м.
    Вид битрейта : Постоянный
    Битрейт : 224 Кбит/сек
    Каналы : 2 канала
    Частота : 48, 0 КГц
    Метод сжатия : С потерями
    Задержка видео : 24 мс.
    Размер потока : 259 Мбайт (3%)
    Язык : std
    Язык, дополнительно : Clean effects
    Аудио #2
    Идентификатор : 3902 (0xF3E)
    Идентификатор меню : 92 (0x5C)
    Формат : AC-3
    Формат/Информация : Audio Coding 3
    Расширение режима : CM (complete main)
    Параметр Endianness формата : Big
    Идентификатор кодека : 6
    Продолжительность : 2 ч. 41 м.
    Вид битрейта : Постоянный
    Битрейт : 384 Кбит/сек
    Каналы : 6 каналов
    Расположение каналов : Front: L C R, Side: L R, LFE
    Частота : 48, 0 КГц
    Битовая глубина : 16 бит
    Метод сжатия : С потерями
    Задержка видео : 27 мс.
    Размер потока : 444 Мбайт (5%)
    Язык : std
    Язык, дополнительно : Clean effects
    Текст
    Идентификатор : 33 (0x21)-100
    Идентификатор меню : 92 (0x5C)
    Формат : Teletext
    Меню
    Идентификатор : 902 (0x386)
    Идентификатор меню : 92 (0x5C)
    Продолжительность : 2 ч. 41 м.
    Список : 1902 (0x76E) (AVC)/2902 (0xB56) (MPEG Audio, std)/3902 (0xF3E) (AC-3, std)/33 (0x21) ()
    Язык : /std/std


    Скриншоты для ознакомления




    Онлайн видео Паттон



    Паттон/Patton (1970) HDTV [H.264/1080i]
    загрузка...
    Рейтинг →
     (голосов: 1, оценка 3/5, голосовать можно 1 раз )

    Другие торренты по теме:

  • Джефф Паттон | Пользовательские истории. Искусство гибкой разработки ПО (2017) [PDF, FB2, EPUB]


    • Комментарии (0):

      Информация

      Информация

        Посетители, находящиеся в группе Гости, не могут оставлять комментарии в данной новости.

        ↓ Меню




        ↓ Опрос

        Вы добавили сайт в закладки?
        Да
        Нет


        Top 10 за месяц (Фильмы)