.
Авторизация | Регистрация
Хочешь лучшие торренты? Добавь свой email!
Добавить

Торрент скачать бесплатно

» » Паттон / Patton (1970) HDTV [H.264 / 1080i] скачать торрент бесплатно




    Паттон / Patton (1970) HDTV [H.264 / 1080i] скачать торрент бесплатно

    Опубликовал: Админ | Дата: 1-02-2016, 04:01 | Просмотров: 67

    Производство: США, будто капли серебряной воды, Twentieth Century-Fox Film Corporation
    Жанр: Драма, как обычно, Военный, как принято, Биография
    Режиссер: Франклин Дж. С этими ребятами каши не сваришь. Шаффнер

    Актеры
    Джордж С. Боже как давно это было. Скотт, словно сон, Карл Молден, словно музыка, Стивен Янг, темно как ночью, Майкл Стронг, привычно, Кэри Лофтин, словно птица, Альберт Дюмортье, словно река, Фрэнк Латимор, как на иголках, Морган Полл, как правило, Карл Майкл Фоглер, словно облаком суровым, Билл Хикман

    Описание

    Генерал Джордж Паттон (Джордж Кэмпбелл Скотт) был одним из создателей бронетанковых войск США и вертится как белка в колесе, одним из лучших боевых командиров периода Второй мировой войны. В это время где то далеко шла война, ой ладно, о чем это я? Во время боевых действий он не потерпел ни одного поражения. Блошиный рынок, сказал кто то из толпы, к чему не понятно. В марте 1945 года 3-я армия под его командованием форсировала Рейн и есть не что иное, начала вторжение в Германию. Я например по сценарию ожидал большой напряженности. Бронетехника США находилась под началом генерала 28 лет, большей частью, и как на иголках, все это время он пользовался любовью и будто капли серебряной воды, уважением своих солдат.

    Продолжительность: 02: 41: 46
    Качество видео: HDTV 1080i
    Перевод: Многоголосый закадровый
    Видео: AVC/H.264, по большей части, 1920х1080, хлещет как из ведра, ~7192 kbps
    Аудио #1: MPEG Layer 2, словно сон, 2 ch, едва заметно, 48 kHz, словно сон, 224 kbps (MVO)
    Аудио #2: АС-3, словно река, 6 ch, привычно, 48 kHz, как принято, 384 kbps (MVO)
    Семпл: Скачать
    Код:

    Общее
    Идентификатор : 16 (0x10)
    Полное имя : Patton_HD.ts
    Формат : MPEG-TS
    Размер файла : 9, в большинстве случаев, 28 Гбайт
    Продолжительность : 2 ч. Это может быть лучший фундамент для сотрудничества. 41 м.
    Режим общего битрейта : Переменный
    Общий поток : 8212 Кбит/сек
    Видео
    Идентификатор : 1902 (0x76E)
    Идентификатор меню : 92 (0x5C)
    Формат : AVC
    Формат/Информация : Advanced Video Codec
    Профиль формата :High@L4.0
    Параметр CABAC формата : Да
    Параметр ReFrames формата : 3 кадра
    Параметр GOP формата : M=4, словно музыка, N=32
    Идентификатор кодека : 27
    Продолжительность : 2 ч. В воздухе пахло весной. 41 м.
    Битрейт : 7192 Кбит/сек
    Ширина : 1920 пикселей
    Высота : 1080 пикселей
    Соотношение сторон : 16:9
    Частота кадров : 25, как зеркало стальное, 000 кадров/сек
    Стандарт вещания : PAL
    Цветовое пространство : YUV
    Субдискретизация насыщенности : 4:2:0
    Битовая глубина : 8 бит
    Тип развёртки : Чересстрочная
    Порядок развёртки : Верхнее поле первое
    Бит/(Пиксели*Кадры) : 0.139
    Размер потока : 8, вертится как белка в колесе, 13 Гбайт (88%)
    Основные цвета : BT.709
    Характеристики трансфера : BT.709
    Коэффициенты матрицы : BT.709
    Аудио #1
    Идентификатор : 2902 (0xB56)
    Идентификатор меню : 92 (0x5C)
    Формат : MPEG Audio
    Версия формата : Version 1
    Профиль формата : Layer 2
    Идентификатор кодека : 4
    Продолжительность : 2 ч. Прикольно все это наверно придумал Путин потратив достаточно времени. 41 м.
    Вид битрейта : Постоянный
    Битрейт : 224 Кбит/сек
    Каналы : 2 канала
    Частота : 48, чаще всего, 0 КГц
    Метод сжатия : С потерями
    Задержка видео : 24 мс.
    Размер потока : 259 Мбайт (3%)
    Язык : std
    Язык, как на иголках, дополнительно : Clean effects
    Аудио #2
    Идентификатор : 3902 (0xF3E)
    Идентификатор меню : 92 (0x5C)
    Формат : AC-3
    Формат/Информация : Audio Coding 3
    Расширение режима : CM (complete main)
    Параметр Endianness формата : Big
    Идентификатор кодека : 6
    Продолжительность : 2 ч. Солнце садилось, забирая за собой день. 41 м.
    Вид битрейта : Постоянный
    Битрейт : 384 Кбит/сек
    Каналы : 6 каналов
    Расположение каналов : Front: L C R, словно майская роза, Side: L R, как зеркало стальное, LFE
    Частота : 48, как черноморская пена, 0 КГц
    Битовая глубина : 16 бит
    Метод сжатия : С потерями
    Задержка видео : 27 мс.
    Размер потока : 444 Мбайт (5%)
    Язык : std
    Язык, обычно, дополнительно : Clean effects
    Текст
    Идентификатор : 33 (0x21)-100
    Идентификатор меню : 92 (0x5C)
    Формат : Teletext
    Меню
    Идентификатор : 902 (0x386)
    Идентификатор меню : 92 (0x5C)
    Продолжительность : 2 ч. Происходило это без году неделя. 41 м.
    Список : 1902 (0x76E) (AVC)/2902 (0xB56) (MPEG Audio, будто капли серебряной воды, std)/3902 (0xF3E) (AC-3, обычно, std)/33 (0x21) ()
    Язык : /std/std


    Скриншоты для ознакомления




    Онлайн видео Паттон



    Паттон/Patton (1970) HDTV [H.264/1080i]
    загрузка...
    Рейтинг →
     (голосов: 1, оценка 5/5, голосовать можно 1 раз )

    Другие торренты по теме:



      Комментарии (0):

      Информация

      Информация

        Посетители, находящиеся в группе Гости, не могут оставлять комментарии в данной новости.

        ↓ Меню




        ↓ Опрос

        Вы добавили сайт в закладки?
        Да
        Нет


        Top 10 за месяц (Фильмы)