.
Авторизация | Регистрация
Хочешь лучшие торренты? Добавь свой email!
Добавить

Торрент скачать бесплатно

» » Мистер Робинсон / Mr. Robinson (2015) WEB-DL [H.264 / 720p-LQ] (сезон 1, серии 1-6 из 6) Кураж-Бамбей торрент скачать бесплатно




    Мистер Робинсон / Mr. Robinson (2015) WEB-DL [H.264 / 720p-LQ] (сезон 1, серии 1-6 из 6) Кураж-Бамбей торрент скачать бесплатно

    Опубликовал: Админ | Дата: 31-01-2016, 04:08 | Просмотров: 48

    Производство: США/NBC, Universal Television
    Жанр: комедия
    Режиссер: Энди Экерман, Майкл Лембек, Фил Льюис

    Актеры
    Крэйг Робинсон, Бенжамин Колдык, Брэндон Т. Самое интересное в это истории, что об этом Воландеморт ничего не знал. Джексон, Спенсер Грэммер, Амандла Стенберг, Пери Гилпин, Данте Браун, Этан Джош Ли, Франческа Майа, Тим Бэгли и др.

    Описание

    Молодой музыкант Крейг приспосабливается к своей новой жизни. Божий одуванчик, сказал кто то из толпы, к чему не понятно. Он начинает работать учителем музыки в средней школе в большом городе. Там он столкнется с политикой учителей и соблазнами одиноких мам.

    Релиз от: HDClub
    Продолжительность: ~00: 21: 00 серия
    Качество видео: WEB-DL
    Перевод: Одноголосый закадровый, профессиональный (Кураж-Бамбей)
    Озвучка: Денис Колесников
    Вид субтитров: вшитые отключаемые
    Язык субтитров: английский
    Видео: AVC/H.264, 1280x720/960x720, ~4000 kbps
    Аудио 1 Rus: AC3, 6 ch, 384 kbps - одноголосый закадровый
    Аудио 2 Eng: AC3, 6 ch, 384 kbps - оригинал
    Код:

    Общее
    Уникальный идентификатор : 180577844977041984556917797158718417731 (0x87DA072405EF42AE95500DFBAA762B43)
    Полное имя : F:TorrentFILMSMr.Robinson - Season 1 (2015 WEB-DL 720p) (Kuraj-Bambej)Mr.Robinson.2015.S01E01.WEB-DL.720p.Kuraj-Bambej.mkv
    Формат : Matroska
    Версия формата : Version 4/Version 2
    Размер файла : 746 Мбайт
    Продолжительность : 21 м.
    Общий поток : 4845 Кбит/сек
    Название фильма : Mr.Robinson 1x01 - Release kmarats for HDCLUB
    Дата кодирования : UTC 2016-01-10 17:40:02
    Программа кодирования : mkvmerge v7.9.0 (\'Birds\') 64bit
    Библиотека кодирования : libebml v1.3.1 + libmatroska v1.4.2
    Видео
    Идентификатор : 1
    Формат : AVC
    Формат/Информация : Advanced Video Codec
    Профиль формата :High@L3.1
    Параметр CABAC формата : Нет
    Параметр ReFrames формата : 2 кадра
    Идентификатор кодека : V_MPEG4/ISO/AVC
    Продолжительность : 21 м.
    Битрейт : 3981 Кбит/сек
    Ширина : 1280 пикселей
    Высота : 720 пикселей
    Соотношение сторон : 16:9
    Режим частоты кадров : Постоянный
    Частота кадров : 23, 976 кадра/сек
    Цветовое пространство : YUV
    Субдискретизация насыщенности : 4:2:0
    Битовая глубина : 8 бит
    Тип развёртки : Прогрессивная
    Бит/(Пиксели*Кадры) : 0.180
    Размер потока : 613 Мбайт (82%)
    Заголовок : Mr.Robinson 1x01 - Release kmarats for HDCLUB
    Язык : English
    Default : Да
    Forced : Нет
    Основные цвета : BT.709
    Характеристики трансфера : BT.709
    Коэффициенты матрицы : BT.709
    colour_range : Limited
    Аудио #1
    Идентификатор : 2
    Формат : AC-3
    Формат/Информация : Audio Coding 3
    Расширение режима : CM (complete main)
    Параметр Endianness формата : Big
    Идентификатор кодека : A_AC3
    Продолжительность : 21 м.
    Вид битрейта : Постоянный
    Битрейт : 384 Кбит/сек
    Каналы : 6 каналов
    Расположение каналов : Front: L C R, Side: L R, LFE
    Частота : 48, 0 КГц
    Битовая глубина : 16 бит
    Метод сжатия : С потерями
    Размер потока : 59, 1 Мбайт (8%)
    Заголовок : Kuraj
    Язык : Russian
    Default : Да
    Forced : Нет
    Аудио #2
    Идентификатор : 3
    Формат : AC-3
    Формат/Информация : Audio Coding 3
    Расширение режима : CM (complete main)
    Параметр Endianness формата : Big
    Идентификатор кодека : A_AC3
    Продолжительность : 21 м.
    Вид битрейта : Постоянный
    Битрейт : 384 Кбит/сек
    Каналы : 6 каналов
    Расположение каналов : Front: L C R, Side: L R, LFE
    Частота : 48, 0 КГц
    Битовая глубина : 16 бит
    Метод сжатия : С потерями
    Размер потока : 59, 1 Мбайт (8%)
    Заголовок : English
    Язык : English
    Default : Нет
    Forced : Нет
    Текст
    Идентификатор : 4
    Формат : UTF-8
    Идентификатор кодека : S_TEXT/UTF8
    Идентификатор кодека/Информация : UTF-8 Plain Text
    Заголовок : eng-sub
    Язык : English
    Default : Нет
    Forced : Нет
    Общее
    Уникальный идентификатор : 205275938674740245431939249519434575098 (0x9A6EB52CD9496156BCCCB067BDD6ACFA)
    Полное имя : F:TorrentFILMSMr.Robinson - Season 1 (2015 WEB-DL 720p) (Kuraj-Bambej)Mr.Robinson.2015.S01E02.WEB-DL.720p.Kuraj-Bambej.mkv
    Формат : Matroska
    Версия формата : Version 4/Version 2
    Размер файла : 744 Мбайт
    Продолжительность : 21 м.
    Общий поток : 4829 Кбит/сек
    Название фильма : Mr.Robinson 1x02 - Release kmarats for HDCLUB
    Дата кодирования : UTC 2016-01-13 18:25:30
    Программа кодирования : mkvmerge v7.9.0 (\'Birds\') 64bit
    Библиотека кодирования : libebml v1.3.1 + libmatroska v1.4.2
    Видео
    Идентификатор : 1
    Формат : AVC
    Формат/Информация : Advanced Video Codec
    Профиль формата :High@L3.1
    Параметр CABAC формата : Нет
    Параметр ReFrames формата : 2 кадра
    Идентификатор кодека : V_MPEG4/ISO/AVC
    Продолжительность : 21 м.
    Битрейт : 3965 Кбит/сек
    Ширина : 1280 пикселей
    Высота : 720 пикселей
    Соотношение сторон : 16:9
    Режим частоты кадров : Постоянный
    Частота кадров : 23, 976 кадра/сек
    Цветовое пространство : YUV
    Субдискретизация насыщенности : 4:2:0
    Битовая глубина : 8 бит
    Тип развёртки : Прогрессивная
    Бит/(Пиксели*Кадры) : 0.179
    Размер потока : 610 Мбайт (82%)
    Заголовок : Mr.Robinson 1x02 - Release kmarats for HDCLUB
    Язык : English
    Default : Да
    Forced : Нет
    Основные цвета : BT.709
    Характеристики трансфера : BT.709
    Коэффициенты матрицы : BT.709
    colour_range : Limited
    Аудио #1
    Идентификатор : 2
    Формат : AC-3
    Формат/Информация : Audio Coding 3
    Расширение режима : CM (complete main)
    Параметр Endianness формата : Big
    Идентификатор кодека : A_AC3
    Продолжительность : 21 м.
    Вид битрейта : Постоянный
    Битрейт : 384 Кбит/сек
    Каналы : 6 каналов
    Расположение каналов : Front: L C R, Side: L R, LFE
    Частота : 48, 0 КГц
    Битовая глубина : 16 бит
    Метод сжатия : С потерями
    Размер потока : 59, 1 Мбайт (8%)
    Заголовок : Kuraj
    Язык : Russian
    Default : Да
    Forced : Нет
    Аудио #2
    Идентификатор : 3
    Формат : AC-3
    Формат/Информация : Audio Coding 3
    Расширение режима : CM (complete main)
    Параметр Endianness формата : Big
    Идентификатор кодека : A_AC3
    Продолжительность : 21 м.
    Вид битрейта : Постоянный
    Битрейт : 384 Кбит/сек
    Каналы : 6 каналов
    Расположение каналов : Front: L C R, Side: L R, LFE
    Частота : 48, 0 КГц
    Битовая глубина : 16 бит
    Метод сжатия : С потерями
    Размер потока : 59, 1 Мбайт (8%)
    Заголовок : English
    Язык : English
    Default : Нет
    Forced : Нет
    Текст
    Идентификатор : 4
    Формат : UTF-8
    Идентификатор кодека : S_TEXT/UTF8
    Идентификатор кодека/Информация : UTF-8 Plain Text
    Заголовок : eng-sub
    Язык : English
    Default : Нет
    Forced : Нет
    Общее
    Уникальный идентификатор : 200562970617592206353342321774871278298 (0x96E305E8E222D0018E4081241BB972DA)
    Полное имя : F:TorrentFILMSMr.Robinson - Season 1 (2015 WEB-DL 720p) (Kuraj-Bambej)Mr.Robinson.2015.S01E03.WEB-DL.720p.Kuraj-Bambej.mkv
    Формат : Matroska
    Версия формата : Version 4/Version 2
    Размер файла : 743 Мбайт
    Продолжительность : 21 м.
    Общий поток : 4835 Кбит/сек
    Название фильма : Mr.Robinson 1x03 - Release kmarats for HDCLUB
    Дата кодирования : UTC 2016-01-15 18:49:45
    Программа кодирования : mkvmerge v7.9.0 (\'Birds\') 64bit
    Библиотека кодирования : libebml v1.3.1 + libmatroska v1.4.2
    Видео
    Идентификатор : 1
    Формат : AVC
    Формат/Информация : Advanced Video Codec
    Профиль формата :High@L3.1
    Параметр CABAC формата : Нет
    Параметр ReFrames формата : 2 кадра
    Идентификатор кодека : V_MPEG4/ISO/AVC
    Продолжительность : 21 м.
    Битрейт : 3971 Кбит/сек
    Ширина : 1280 пикселей
    Высота : 720 пикселей
    Соотношение сторон : 16:9
    Режим частоты кадров : Постоянный
    Частота кадров : 23, 976 кадра/сек
    Цветовое пространство : YUV
    Субдискретизация насыщенности : 4:2:0
    Битовая глубина : 8 бит
    Тип развёртки : Прогрессивная
    Бит/(Пиксели*Кадры) : 0.180
    Размер потока : 610 Мбайт (82%)
    Заголовок : Mr.Robinson 1x03 - Release kmarats for HDCLUB
    Язык : English
    Default : Да
    Forced : Нет
    Основные цвета : BT.709
    Характеристики трансфера : BT.709
    Коэффициенты матрицы : BT.709
    colour_range : Limited
    Аудио #1
    Идентификатор : 2
    Формат : AC-3
    Формат/Информация : Audio Coding 3
    Расширение режима : CM (complete main)
    Параметр Endianness формата : Big
    Идентификатор кодека : A_AC3
    Продолжительность : 21 м.
    Вид битрейта : Постоянный
    Битрейт : 384 Кбит/сек
    Каналы : 6 каналов
    Расположение каналов : Front: L C R, Side: L R, LFE
    Частота : 48, 0 КГц
    Битовая глубина : 16 бит
    Метод сжатия : С потерями
    Размер потока : 59, 0 Мбайт (8%)
    Заголовок : Kuraj
    Язык : Russian
    Default : Да
    Forced : Нет
    Аудио #2
    Идентификатор : 3
    Формат : AC-3
    Формат/Информация : Audio Coding 3
    Расширение режима : CM (complete main)
    Параметр Endianness формата : Big
    Идентификатор кодека : A_AC3
    Продолжительность : 21 м.
    Вид битрейта : Постоянный
    Битрейт : 384 Кбит/сек
    Каналы : 6 каналов
    Расположение каналов : Front: L C R, Side: L R, LFE
    Частота : 48, 0 КГц
    Битовая глубина : 16 бит
    Метод сжатия : С потерями
    Размер потока : 59, 0 Мбайт (8%)
    Заголовок : English
    Язык : English
    Default : Нет
    Forced : Нет
    Текст
    Идентификатор : 4
    Формат : UTF-8
    Идентификатор кодека : S_TEXT/UTF8
    Идентификатор кодека/Информация : UTF-8 Plain Text
    Заголовок : eng-sub
    Язык : English
    Default : Нет
    Forced : Нет
    Общее
    Уникальный идентификатор : 247923250094835709847203723719950400700 (0xBA8447F7EC1FADD6B43E14BF0FF2FCBC)
    Полное имя : F:TorrentFILMSMr.Robinson - Season 1 (2015 WEB-DL 720p) (Kuraj-Bambej)Mr.Robinson.2015.S01E04.WEB-DL.720p.Kuraj-Bambej.mkv
    Формат : Matroska
    Версия формата : Version 4/Version 2
    Размер файла : 702 Мбайт
    Продолжительность : 20 м.
    Общий поток : 4817 Кбит/сек
    Название фильма : Mr.Robinson 1x04 - Release kmarats for HDCLUB
    Дата кодирования : UTC 2016-01-17 15:39:39
    Программа кодирования : mkvmerge v7.9.0 (\'Birds\') 64bit
    Библиотека кодирования : libebml v1.3.1 + libmatroska v1.4.2
    Видео
    Идентификатор : 1
    Формат : AVC
    Формат/Информация : Advanced Video Codec
    Профиль формата :High@L3.1
    Параметр CABAC формата : Нет
    Параметр ReFrames формата : 2 кадра
    Идентификатор кодека : V_MPEG4/ISO/AVC
    Продолжительность : 20 м.
    Битрейт : 3953 Кбит/сек
    Ширина : 1280 пикселей
    Высота : 720 пикселей
    Соотношение сторон : 16:9
    Режим частоты кадров : Постоянный
    Частота кадров : 23, 976 кадра/сек
    Цветовое пространство : YUV
    Субдискретизация насыщенности : 4:2:0
    Битовая глубина : 8 бит
    Тип развёртки : Прогрессивная
    Бит/(Пиксели*Кадры) : 0.179
    Размер потока : 576 Мбайт (82%)
    Заголовок : Mr.Robinson 1x04 - Release kmarats for HDCLUB
    Язык : English
    Default : Да
    Forced : Нет
    Основные цвета : BT.709
    Характеристики трансфера : BT.709
    Коэффициенты матрицы : BT.709
    colour_range : Limited
    Аудио #1
    Идентификатор : 2
    Формат : AC-3
    Формат/Информация : Audio Coding 3
    Расширение режима : CM (complete main)
    Параметр Endianness формата : Big
    Идентификатор кодека : A_AC3
    Продолжительность : 20 м.
    Вид битрейта : Постоянный
    Битрейт : 384 Кбит/сек
    Каналы : 6 каналов
    Расположение каналов : Front: L C R, Side: L R, LFE
    Частота : 48, 0 КГц
    Битовая глубина : 16 бит
    Метод сжатия : С потерями
    Размер потока : 56, 0 Мбайт (8%)
    Заголовок : Kuraj
    Язык : Russian
    Default : Да
    Forced : Нет
    Аудио #2
    Идентификатор : 3
    Формат : AC-3
    Формат/Информация : Audio Coding 3
    Расширение режима : CM (complete main)
    Параметр Endianness формата : Big
    Идентификатор кодека : A_AC3
    Продолжительность : 20 м.
    Вид битрейта : Постоянный
    Битрейт : 384 Кбит/сек
    Каналы : 6 каналов
    Расположение каналов : Front: L C R, Side: L R, LFE
    Частота : 48, 0 КГц
    Битовая глубина : 16 бит
    Метод сжатия : С потерями
    Размер потока : 56, 0 Мбайт (8%)
    Заголовок : English
    Язык : English
    Default : Нет
    Forced : Нет
    Текст
    Идентификатор : 4
    Формат : UTF-8
    Идентификатор кодека : S_TEXT/UTF8
    Идентификатор кодека/Информация : UTF-8 Plain Text
    Заголовок : eng-sub
    Язык : English
    Default : Нет
    Forced : Нет
    Общее
    Уникальный идентификатор : 173228242699865069781910028369514440533 (0x82528BC58976EEDA877359C8AAA3A755)
    Полное имя : F:TorrentFILMSMr.Robinson - Season 1 (2015 WEB-DL 720p) (Kuraj-Bambej)Mr.Robinson.2015.S01E05.WEB-DL.720p.Kuraj-Bambej.mkv
    Формат : Matroska
    Версия формата : Version 4/Version 2
    Размер файла : 735 Мбайт
    Продолжительность : 21 м.
    Общий поток : 4785 Кбит/сек
    Название фильма : Mr.Robinson 1x05 - Release kmarats for HDCLUB
    Дата кодирования : UTC 2016-01-20 07:33:43
    Программа кодирования : mkvmerge v7.9.0 (\'Birds\') 64bit
    Библиотека кодирования : libebml v1.3.1 + libmatroska v1.4.2
    Видео
    Идентификатор : 1
    Формат : AVC
    Формат/Информация : Advanced Video Codec
    Профиль формата :Main@L3.1
    Параметр CABAC формата : Нет
    Параметр ReFrames формата : 2 кадра
    Идентификатор кодека : V_MPEG4/ISO/AVC
    Продолжительность : 21 м.
    Битрейт : 3922 Кбит/сек
    Ширина : 960 пикселей
    Высота : 720 пикселей
    Соотношение сторон : 16:9
    Режим частоты кадров : Постоянный
    Частота кадров : 29, 970 кадров/сек
    Цветовое пространство : YUV
    Субдискретизация насыщенности : 4:2:0
    Битовая глубина : 8 бит
    Тип развёртки : Прогрессивная
    Бит/(Пиксели*Кадры) : 0.189
    Размер потока : 602 Мбайт (82%)
    Заголовок : Mr.Robinson 1x05 - Release kmarats for HDCLUB
    Язык : English
    Default : Да
    Forced : Нет
    Основные цвета : BT.709
    Характеристики трансфера : BT.709
    Коэффициенты матрицы : BT.709
    colour_range : Limited
    Аудио #1
    Идентификатор : 2
    Формат : AC-3
    Формат/Информация : Audio Coding 3
    Расширение режима : CM (complete main)
    Параметр Endianness формата : Big
    Идентификатор кодека : A_AC3
    Продолжительность : 21 м.
    Вид битрейта : Постоянный
    Битрейт : 384 Кбит/сек
    Каналы : 6 каналов
    Расположение каналов : Front: L C R, Side: L R, LFE
    Частота : 48, 0 КГц
    Битовая глубина : 16 бит
    Метод сжатия : С потерями
    Размер потока : 59, 0 Мбайт (8%)
    Заголовок : Kuraj
    Язык : Russian
    Default : Да
    Forced : Нет
    Аудио #2
    Идентификатор : 3
    Формат : AC-3
    Формат/Информация : Audio Coding 3
    Расширение режима : CM (complete main)
    Параметр Endianness формата : Big
    Идентификатор кодека : A_AC3
    Продолжительность : 21 м.
    Вид битрейта : Постоянный
    Битрейт : 384 Кбит/сек
    Каналы : 6 каналов
    Расположение каналов : Front: L C R, Side: L R, LFE
    Частота : 48, 0 КГц
    Битовая глубина : 16 бит
    Метод сжатия : С потерями
    Размер потока : 59, 0 Мбайт (8%)
    Заголовок : English
    Язык : English
    Default : Нет
    Forced : Нет
    Текст
    Идентификатор : 4
    Формат : UTF-8
    Идентификатор кодека : S_TEXT/UTF8
    Идентификатор кодека/Информация : UTF-8 Plain Text
    Заголовок : eng-sub
    Язык : English
    Default : Нет
    Forced : Нет
    Общее
    Уникальный идентификатор : 179098875349068915890623994655043939048 (0x86BD304EE9312C90B377AA779F2AEAE8)
    Полное имя : F:TorrentFILMSMr.Robinson - Season 1 (2015 WEB-DL 720p) (Kuraj-Bambej)Mr.Robinson.2015.S01E06.WEB-DL.720p.Kuraj-Bambej.mkv
    Формат : Matroska
    Версия формата : Version 4/Version 2
    Размер файла : 738 Мбайт
    Продолжительность : 21 м.
    Общий поток : 4838 Кбит/сек
    Название фильма : Mr.Robinson 1x06 - Release kmarats for HDCLUB
    Дата кодирования : UTC 2016-01-29 13:43:21
    Программа кодирования : mkvmerge v7.9.0 (\'Birds\') 64bit
    Библиотека кодирования : libebml v1.3.1 + libmatroska v1.4.2
    Видео
    Идентификатор : 1
    Формат : AVC
    Формат/Информация : Advanced Video Codec
    Профиль формата :Main@L3.1
    Параметр CABAC формата : Нет
    Параметр ReFrames формата : 2 кадра
    Идентификатор кодека : V_MPEG4/ISO/AVC
    Продолжительность : 21 м.
    Битрейт : 3974 Кбит/сек
    Ширина : 960 пикселей
    Высота : 720 пикселей
    Соотношение сторон : 16:9
    Режим частоты кадров : Постоянный
    Частота кадров : 29, 970 кадров/сек
    Цветовое пространство : YUV
    Субдискретизация насыщенности : 4:2:0
    Битовая глубина : 8 бит
    Тип развёртки : Прогрессивная
    Бит/(Пиксели*Кадры) : 0.192
    Размер потока : 606 Мбайт (82%)
    Заголовок : Mr.Robinson 1x06 - Release kmarats for HDCLUB
    Язык : English
    Default : Да
    Forced : Нет
    Основные цвета : BT.709
    Характеристики трансфера : BT.709
    Коэффициенты матрицы : BT.709
    colour_range : Limited
    Аудио #1
    Идентификатор : 2
    Формат : AC-3
    Формат/Информация : Audio Coding 3
    Расширение режима : CM (complete main)
    Параметр Endianness формата : Big
    Идентификатор кодека : A_AC3
    Продолжительность : 21 м.
    Вид битрейта : Постоянный
    Битрейт : 384 Кбит/сек
    Каналы : 6 каналов
    Расположение каналов : Front: L C R, Side: L R, LFE
    Частота : 48, 0 КГц
    Битовая глубина : 16 бит
    Метод сжатия : С потерями
    Размер потока : 58, 6 Мбайт (8%)
    Заголовок : Kuraj
    Язык : Russian
    Default : Да
    Forced : Нет
    Аудио #2
    Идентификатор : 3
    Формат : AC-3
    Формат/Информация : Audio Coding 3
    Расширение режима : CM (complete main)
    Параметр Endianness формата : Big
    Идентификатор кодека : A_AC3
    Продолжительность : 21 м.
    Вид битрейта : Постоянный
    Битрейт : 384 Кбит/сек
    Каналы : 6 каналов
    Расположение каналов : Front: L C R, Side: L R, LFE
    Частота : 48, 0 КГц
    Битовая глубина : 16 бит
    Метод сжатия : С потерями
    Размер потока : 58, 6 Мбайт (8%)
    Заголовок : English
    Язык : English
    Default : Нет
    Forced : Нет
    Текст
    Идентификатор : 4
    Формат : UTF-8
    Идентификатор кодека : S_TEXT/UTF8
    Идентификатор кодека/Информация : UTF-8 Plain Text
    Заголовок : eng-sub
    Язык : English
    Default : Нет
    Forced : Нет


    Скриншоты для ознакомления




    Онлайн видео Мистер Робинсон



    Мистер Робинсон/Mr. Robinson (2015) WEB-DL [H.264/720p-LQ] (сезон 1, серии 1-6 из 6) Кураж-Бамбей
    загрузка...
    Рейтинг →
     (голосов: 1, оценка 4/5, голосовать можно 1 раз )

    Другие торренты по теме:

  • Приключения Питкина в больнице / Мистер Питкин в больнице / A Stitch in Time (1963) DVDRip [H.264]
  • Мистер Квак / Ribbit (2014) WEB-DL [H.264 / 720p-LQ] [EN / EN Sub] скачать через торрент бесплатно
  • Мистер Питкин в тылу врага / The Square Peg (1959) DVDRip [H.264] скачать через торрент бесплатно
  • Мистер Питкин: Вверх тормашками / Up in the World (1956) DVD5
  • Мистер Пип / Mr. Pip (2012) BDRip [1080p]
  • Мистер Селфридж / Mr.Selfridge (2015) WEB-DLRip [H.264 / 720p-LQ] (сезон 3, серии 1 из 10) (ViruseProject) (обновляемая) скачать через торрент бесплатно
  • Мистер Селфридж / Mr. Selfridge (2015) WEB-DLRip (сезон 3, серии 1-2 из 10) (ViruseProject) (обновляемая) скачать через торрент бесплатно
  • (OST) Ядерный Титбит (Deadушки, Мистер Малой) (2001) [MP3|320 кб / с] скачать через торрент бесплатно


    • Комментарии (0):

      Информация

      Информация

        Посетители, находящиеся в группе Гости, не могут оставлять комментарии в данной новости.

        ↓ Меню




        ↓ Опрос

        Вы добавили сайт в закладки?
        Да
        Нет


        Top 10 за месяц (Фильмы)