.
Авторизация | Регистрация
Хочешь лучшие торренты? Добавь свой email!
Добавить

Торрент скачать бесплатно

» » Метод Фрейда (2015) WEB-DLRip [H.264] (сезон 2, серии 1-4 из 12) (обновляемая) торрент скачать бесплатно




    Метод Фрейда (2015) WEB-DLRip [H.264] (сезон 2, серии 1-4 из 12) (обновляемая) торрент скачать бесплатно

    Опубликовал: Админ | Дата: 31-01-2016, 04:08 | Просмотров: 73

    Производство: Россия/Star Media
    Жанр: детектив, криминал
    Режиссер: Иван Стаханов

    Актеры
    Иван Охлобыстин, Наталия Антонова, Алексей Гришин, Артур Ваха, Роман Полянский, Ольга Дибцева, Татьяна Лютаева, Георгий Лежава, Сергей Павлов, Алексей Шаранин и др.

    Описание

    Второй сезон любимого сериала телесериала Метод Фрейда рассказывает о расследовании преступлений, в совершении которых подозревают женщин. Но при ближайшем рассмотрении всегда оказывается, что женщина, какими бы ни были ее вина и участие в убийстве — жертва обстоятельств. Действия женщины — всегда защитная реакция на несправедливость жизни, несовершенство мира, созданного мужчинами для самих себя и организованного по мужским законам.

    Продолжительность: ~ 00: 48: 00 серия
    Качество видео: WEB-DLRip
    Видео: AVC/H.264, 1024х576 (16: 9), ~1809 Кбит/сек
    Аудио: AC3, 2 канала, 192 Кбит/сек, CBR
    Код:

    Общее
    Уникальный идентификатор : 253749367017389538396885097438876794979 (0xBEE659B5D56350C1ACE4DA2FFBCC0063)
    Полное имя : F:Метод Фрейда 2Метод Фрейда-2_01 серия rip by_Aleksan55.mkv
    Формат : Matroska
    Версия формата : Version 2
    Размер файла : 700 Мбайт
    Продолжительность : 48 м.
    Общий поток : 2002 Кбит/сек
    Дата кодирования : UTC 2016-01-29 13:29:56
    Программа кодирования : mkvmerge v6.1.0 (\'Old Devil\') built on Mar 4 2013 09:10:42
    Библиотека кодирования : libebml v1.3.0 + libmatroska v1.4.0
    Видео
    Идентификатор : 1
    Формат : AVC
    Формат/Информация : Advanced Video Codec
    Профиль формата :High@L4.1
    Параметр CABAC формата : Да
    Параметр ReFrames формата : 9 кадров
    Идентификатор кодека : V_MPEG4/ISO/AVC
    Продолжительность : 48 м.
    Битрейт : 1809 Кбит/сек
    Ширина : 1024 пикселя
    Высота : 576 пикселей
    Соотношение сторон : 16:9
    Режим частоты кадров : Постоянный
    Частота кадров : 25, 000 кадров/сек
    Цветовое пространство : YUV
    Субдискретизация насыщенности : 4:2:0
    Битовая глубина : 8 бит
    Тип развёртки : Прогрессивная
    Бит/(Пиксели*Кадры) : 0.123
    Размер потока : 619 Мбайт (88%)
    Библиотека кодирования : x264 core 130 r2273 b3065e6
    Настройки программы : cabac=1/ref=9/deblock=1:-3:-3/analyse=0x3:0x133/me=umh/subme=9/psy=1/psy_rd=1.00:0.15/mixed_ref=0/me_range=32/chroma_me=1/trellis=2/8x8dct=1/cqm=0/deadzone=21, 11/fast_pskip=1/chroma_qp_offset=-3/threads=2/lookahead_threads=1/sliced_threads=0/nr=0/decimate=1/interlaced=0/bluray_compat=0/constrained_intra=0/bframes=9/b_pyramid=2/b_adapt=1/b_bias=0/direct=1/weightb=1/open_gop=0/weightp=2/keyint=250/keyint_min=25/scenecut=40/intra_refresh=0/rc_lookahead=40/rc=2pass/mbtree=1/bitrate=1809/ratetol=1.0/qcomp=0.60/qpmin=0/qpmax=69/qpstep=4/cplxblur=20.0/qblur=0.5/ip_ratio=1.40/aq=1:1.50
    Default : Да
    Forced : Нет
    Цветовой диапазон : Limited
    Основные цвета : BT.709
    Характеристики трансфера : BT.709
    Коэффициенты матрицы : BT.709
    Аудио
    Идентификатор : 2
    Формат : AC-3
    Формат/Информация : Audio Coding 3
    Расширение режима : CM (complete main)
    Параметр Endianness формата : Big
    Идентификатор кодека : A_AC3
    Продолжительность : 48 м.
    Вид битрейта : Постоянный
    Битрейт : 192 Кбит/сек
    Каналы : 2 канала
    Расположение каналов : Front: L R
    Частота : 48, 0 КГц
    Метод сжатия : С потерями
    Размер потока : 67, 1 Мбайт (10%)
    Default : Да
    Forced : Нет


    Скриншоты для ознакомления




    Онлайн видео Метод Фрейда (2015) WEB



    Метод Фрейда (2015) WEB-DLRip [H.264] (сезон 2, серии 1-4 из 12) (обновляемая)
    загрузка...
    Рейтинг →
     (голосов: 1, оценка 5/5, голосовать можно 1 раз )

    Другие торренты по теме:

  • Метод Фрейда (2012) WEB-DLRip [H.264 / 720p-LQ] (серии 1-12 из 12) скачать через торрент бесплатно
  • Метод Фрейда (2012) WEB-DLRip [H.264 / 1080p-LQ] (серии 1-12 из 12) скачать через торрент бесплатно
  • Метод Фрейда (2015) IPTVRip (сезон 2, серии 1-4 из 12) (обновляемая) скачать через торрент бесплатно
  • Метод Фрейда (2015) WEB-DLRip (сезон 2, серии 1-8 из 12) (обновляемая)
  • Метод Фрейда (2015) WEB-DL [H.264 / 1080p-LQ] (сезон 2, серии 1-4 из 12) (обновляемая)
  • Метод Фрейда (2015) WEB-DL [H.264 / 720p-LQ] (сезон 2, серии 1-12 из 12)
  • Метод Фрейда (2015) HDTVRip [H.264 / 720p-LQ] (сезон 2, серии 1-4 из 12) (обновляемая)
  • Метод Фрейда (2015) HDTV [H.264 / 1080p-LQ] (сезон 2, серии 1-4 из 12) (обновляемая)


    • Комментарии (0):

      Информация

      Информация

        Посетители, находящиеся в группе Гости, не могут оставлять комментарии в данной новости.

        ↓ Меню




        ↓ Опрос

        Вы добавили сайт в закладки?
        Да
        Нет


        Top 10 за месяц (Фильмы)