.
Авторизация | Регистрация
Хочешь лучшие торренты? Добавь свой email!
Добавить

Торрент скачать бесплатно

» » Такси / Taxi (2015) HDRip торрент скачать бесплатно




    Такси / Taxi (2015) HDRip торрент скачать бесплатно

    Опубликовал: Админ | Дата: 31-01-2016, 04:08 | Просмотров: 73

    Производство: Иран/Jafar Panahi Film Productions
    Жанр: Драма, Комедия
    Режиссер: Джафар Панахи/Jafar Panahi
    Продюсер: Джафар Панахи/Jafar Panahi

    Актеры
    Джафар Панахи/Jafar Panahi

    Описание

    Желтое такси колесит по ярким и красочным улицам Тегерана. В такси садятся разнообразные пассажиры, каждый из которых искренне выражает свои взгляды во время беседы с водителем. Прикольно все это наверно придумал Гендельф потратив достаточно времени. А водителем является не кто иной, как сам режиссер фильма Джафар Панахи.

    Возраст: 12+
    Дата мировой премьеры: 6 февраля 2015
    Дата премьеры в России: 17 сентября 2015, Артхаус
    Продолжительность: 01: 21: 43
    Качество видео: HDRip
    Перевод: Многоголосый закадровый, профессиональный
    Вид субтитров: Отсутствуют
    Реклама: Отсутствует
    Видео: Xvid, 720x400, ~1999 Kb/s
    Аудио: AC3, 6 ch, 384 Kb/s
    Семпл: Скачать
    Код:

    General
    Complete name : D:ФильмыTAKS1.2015.P.HDRip.1400MB.avi
    Format : AVI
    Format/Info : Audio Video Interleave
    File size : 1.37 GiB
    Duration : 1h 21mn
    Overall bit rate : 2 392 Kbps
    Writing application : VirtualDubMod 1.5.10.2 (build 2540/release)
    Writing library : VirtualDubMod build 2540/release
    Video
    ID : 0
    Format : MPEG-4 Visual
    Format profile : Advanced Simple@L5
    Format settings, BVOP : 2
    Format settings, QPel : No
    Format settings, GMC : No warppoints
    Format settings, Matrix : Default (MPEG)
    Codec ID : XVID
    Codec ID/Hint : XviD
    Duration : 1h 21mn
    Bit rate : 2 000 Kbps
    Width : 720 pixels
    Height : 400 pixels
    Display aspect ratio : 16:9
    Frame rate : 23.976 (24000/1001) fps
    Color space : YUV
    Chroma subsampling : 4:2:0
    Bit depth : 8 bits
    Scan type : Progressive
    Compression mode : Lossy
    Bits/(Pixel*Frame) : 0.290
    Stream size : 1.14 GiB (84%)
    Writing library : XviD 1.2.1 (UTC 2008-12-04)
    Audio
    ID : 1
    Format : AC-3
    Format/Info : Audio Coding 3
    Mode extension : CM (complete main)
    Format settings, Endianness : Big
    Codec ID : 2000
    Duration : 1h 21mn
    Bit rate mode : Constant
    Bit rate : 384 Kbps
    Channel(s) : 6 channels
    Channel positions : Front: L C R, Side: L R, LFE
    Sampling rate : 48.0 KHz
    Frame rate : 31.250 fps (1536 spf)
    Compression mode : Lossy
    Stream size : 224 MiB (16%)
    Alignment : Split accross interleaves
    Interleave, duration : 42 ms (1.00 video frame)
    Interleave, preload duration : 500 ms


    Скриншоты для ознакомления




    Онлайн видео Такси



    Такси/Taxi (2015) HDRip
    загрузка...
    Рейтинг →
     (голосов: 1, оценка 4/5, голосовать можно 1 раз )

    Другие торренты по теме:

  • Такси / Taxi (2015) WEB-DL [H.264 / 1080p-LQ] скачать через торрент бесплатно
  • Такси / Taxi (2015) WEB-DL [H.264 / 720p-LQ] скачать через торрент бесплатно
  • Такси / Taxi (2015) WEB-DLRip скачать через торрент бесплатно
  • Такси / Taxi (2015) WEB-DL [720p] ATV скачать через торрент бесплатно
  • Такси / Taxi (2015) WEB-DLRip [576p] iPad скачать через торрент бесплатно
  • Такси / Taxi (2015) WEB-DL [1080p] ATV скачать через торрент бесплатно
  • Такси / Taxi (1998-2007) BDRip [H.264 / 1080p-LQ] [Квадрология]
  • Такси: Квадрология / Taxi: 4-Movie Collection (1998 / 2000 / 2003 / 2007) BDRip [H.264] [MP4|1024x436]


    • Комментарии (0):

      Информация

      Информация

        Посетители, находящиеся в группе Гости, не могут оставлять комментарии в данной новости.

        ↓ Меню




        ↓ Опрос

        Вы добавили сайт в закладки?
        Да
        Нет


        Top 10 за месяц (Фильмы)