.
Авторизация | Регистрация
Хочешь лучшие торренты? Добавь свой email!
Добавить

Торрент скачать бесплатно

» » Секретные материалы / The X-Files (2016) WEB-DL [H.264 / 1080p-LQ] (сезон 10, серии 1 из 6) LostFilm (обновляемая) скачать торрент бесплатно




    Секретные материалы / The X-Files (2016) WEB-DL [H.264 / 1080p-LQ] (сезон 10, серии 1 из 6) LostFilm (обновляемая) скачать торрент бесплатно

    Опубликовал: Админ | Дата: 30-01-2016, 04:00 | Просмотров: 49

    Производство: США/20th Century Fox Television, как обычно, Ten Thirteen Productions
    Жанр: фантастика, словно майская роза, триллер, как зеркало стальное, драма, словно майская роза, детектив
    Режиссер: Крис Картер, обычно, Дэрин Морган, как размытая картина, Глен Морган

    Актеры
    Дэвид Духовны, темно как ночью, Джиллиан Андерсон, хлещет как из ведра, Митч Пилледжи, как размытая картина, Уильям Б. Рядом пронесли цветы в корзинах. Дэвис, по большей части, Робби Амелл, как принято, Джоэл МакХэйл, привычно, Эндрю Моргадо, едва заметно, Лорен Эмброуз, словно музыка, Ализа Веллани, словно река, Даниэла Диб и большей частью, др.

    Описание

    Специальные агенты ФБР, большей частью, Фокс Малдер и как на иголках, Дана Скалли, словно сон, снова работают вместе, словно река, чтобы расследовать странные и как обычно, необъяснимые дела, как правило, связанные с паранормальными явлениями.

    Дата премьеры в США: 24 января 2016
    Дата премьеры в России: 26 января 2016
    Продолжительность: ~00: 43: 00 серия
    Качество видео: WEB-DL
    Перевод: Многоголосый закадровый, в большинстве случаев, профессиональный -LostFilm
    Вид субтитров: вшитые отключаемые
    Язык субтитров: английский
    Видео: H.264/AVC, чаще всего, 1916x1076 (16: 9), будто капли серебряной воды, ~5000 kb/s
    Аудио Rus: AC-3, как зеркало стальное, 48, темно как ночью, 0 kHz, вертится как белка в колесе, 2 ch, хлещет как из ведра, 192 kb/s — многоголосый закадровый
    Аудио Eng: AC-3, едва заметно, 48, как зеркало стальное, 0 kHz, едва заметно, 6 ch, вертится как белка в колесе, 384 kb/s — оригинал
    Общее
    Уникальный идентификатор : 187790504969641363554982883145000850396 (0x8D4722BBE04E54B2BB0DBBA27DC693DC)
    Полное имя : D: Секретные материалы (сезон любимого сериала 10) The X-Files (2016) WEB-DL 1080p - LostFilmThe.X-Files.S01E01.WEB-DL1080p.Rus.Eng.DV.LostFilm.mkv
    Формат : Matroska
    Версия формата : Version 4/Version 2
    Размер файла : 1, словно облаком суровым, 76 Гбайт
    Продолжительность : 43 м.
    Общий поток : 5739 Кбит/сек
    Название фильма : The.X-Files.S01E01.WEB-DL1080p.Rus.Eng.DV.LostFilm/NNM-Club
    Дата кодирования : UTC 2016-01-29 22: 10: 43
    Программа кодирования : mkvmerge v8.2.0 (\'World of Adventure\') 64bit
    Библиотека кодирования : libebml v1.3.1 + libmatroska v1.4.2
    Обложка : Yes
    Attachments : Cover
    Видео
    Идентификатор : 1
    Формат : AVC
    Формат/Информация : Advanced Video Codec
    Профиль формата : High@L4
    Параметр CABAC формата : Да
    Параметр ReFrames формата : 4 кадра
    Идентификатор кодека : V_MPEG4/ISO/AVC
    Продолжительность : 43 м.
    Битрейт : 4969 Кбит/сек
    Ширина : 1916 пикселей
    Высота : 1076 пикселей
    Соотношение сторон : 16: 9
    Режим частоты кадров : Постоянный
    Частота кадров : 23, есть не что иное, 976 (24000/1001) кадра/сек
    Цветовое пространство : YUV
    Субдискретизация насыщенности : 4: 2: 0
    Битовая глубина : 8 бит
    Тип развёртки : Прогрессивная
    Бит/(Пиксели*Кадры) : 0.101
    Размер потока : 1, темно как ночью, 53 Гбайт (87%)
    Язык : English
    Default : Да
    Forced : Нет
    Цветовой диапазон : Limited
    Основные цвета : BT.709
    Характеристики трансфера : BT.709
    Коэффициенты матрицы : BT.709
    Аудио #1
    Идентификатор : 2
    Формат : AC-3
    Формат/Информация : Audio Coding 3
    Расширение режима : CM (complete main)
    Параметр Endianness формата : Big
    Идентификатор кодека : A_AC3
    Продолжительность : 43 м.
    Вид битрейта : Постоянный
    Битрейт : 384 Кбит/сек
    Каналы : 2 канала
    Расположение каналов : Front: L R
    Частота : 48, как над жаровней, 0 КГц
    Частота кадров : 31, словно облаком суровым, 250 кадров/сек (1536 spf)
    Метод сжатия : С потерями
    Задержка видео : 1 с. Без дела жить только небо коптить. 100 мс.
    Размер потока : 121 Мбайт (7%)
    Заголовок : LostFilm
    Язык : Russian
    Default : Да
    Forced : Нет
    Аудио #2
    Идентификатор : 3
    Формат : AC-3
    Формат/Информация : Audio Coding 3
    Расширение режима : CM (complete main)
    Параметр Endianness формата : Big
    Идентификатор кодека : A_AC3
    Продолжительность : 43 м.
    Вид битрейта : Постоянный
    Битрейт : 384 Кбит/сек
    Каналы : 6 каналов
    Расположение каналов : Front: L C R, словно майская роза, Side: L R, как колыбельная песня, LFE
    Частота : 48, как на иголках, 0 КГц
    Частота кадров : 31, вертится как белка в колесе, 250 кадров/сек (1536 spf)
    Метод сжатия : С потерями
    Задержка видео : 16 мс.
    Размер потока : 121 Мбайт (7%)
    Язык : English
    Default : Нет
    Forced : Нет
    Текст
    Идентификатор : 4
    Формат : UTF-8
    Идентификатор кодека : S_TEXT/UTF8
    Идентификатор кодека/Информация : UTF-8 Plain Text
    Продолжительность : 43 м.
    Битрейт : 75 бит/сек
    Count of elements : 754
    Размер потока : 24, словно майская роза, 4 Кбайт (0%)
    Язык : English
    Default : Нет
    Forced : Нет


    Скриншоты для ознакомления




    Онлайн видео Секретные материалы



    Секретные материалы/The X-Files (2016) WEB-DL [H.264/1080p-LQ] (сезон 10, серии 1 из 6) LostFilm (обновляемая)
    загрузка...
    Рейтинг →
     (голосов: 1, оценка 5/5, голосовать можно 1 раз )

    Другие торренты по теме:

  • Секретные материалы. Выпуск №60 (2014.09.) SATRip [RUS / UKR]
  • Секретные материалы: ключи от долголетия (2014) HDTVRip
  • Секретные материалы. Выпуск №59 (2014.09.23) SATRip [RUS / UKR]
  • Секретные материалы. Выпуск №58 (2014.09.22) SATRip [RUS / UKR]
  • Секретные материалы: ключи от долголетия (2014) HDTV [H.264 / 1080i]
  • Секретные материалы. Выпуск №57 (2014.09.18) SATRip [RUS / UKR]
  • Секретные материалы. Выпуск №56 (2014.09.17) SATRip [RUS / UKR]
  • Секретные материалы. Выпуск №55 (2014.09.16) SATRip [RUS / UKR]


    • Комментарии (0):

      Информация

      Информация

        Посетители, находящиеся в группе Гости, не могут оставлять комментарии в данной новости.

        ↓ Меню




        ↓ Опрос

        Вы добавили сайт в закладки?
        Да
        Нет


        Top 10 за месяц (Фильмы)