.
Авторизация | Регистрация
Хочешь лучшие торренты? Добавь свой email!
Добавить

Торрент скачать бесплатно

» » Капитан Саблезуб и сокровища Лама Рама / Kaptein Sabeltann og skatten i Lama Rama (2014) HDRip [H.264 / 720p-LQ] [GER / RU Sub] торрент скачать бесплатно




    Капитан Саблезуб и сокровища Лама Рама / Kaptein Sabeltann og skatten i Lama Rama (2014) HDRip [H.264 / 720p-LQ] [GER / RU Sub] торрент скачать бесплатно

    Опубликовал: Админ | Дата: 30-01-2016, 04:00 | Просмотров: 66

    Производство: Норвегия, Великобритания, Norwegian Pirates, Storm Films, Storm Productions
    Жанр: Приключения
    Режиссер: Йон Андерсен

    Актеры
    Тува Новотны, Андерс Босмо Кристиансен, Фридтьов Сохейм, Одд Магнус Уильямсон, Карре Хаген Сиднесс, Пиа Тьелта, Йон Ёигарден, Роберт Скйэрстад, Нильс Йорген Каалстад, Хами Белаль

    Описание

    Отважный и самоуверенный капитан Саблезуб бороздит моря и океаны со своей командой в поисках сокровищ. Естественно, в пути они переживают массу приключений: на них нападает целая армия злобных обезьян, их судно угоняет конкурирующая шайка пиратов, они оказываются участниками государственного переворота, а в довершении всего, у них юнга, который не умеет плавать…

    Продолжительность: 01: 36: 17
    Качество видео: HDRip
    Перевод: Отсутствует
    Язык озвучки: немецкий
    Язык субтитров: Русский
    Вид субтитров: Вшитые
    Видео: AVC/H.264, 1280 x 536, ~2216 Кбит/сек
    Аудио: DTS, 6 ch, 1509 Кбит/сек, CBR
    Семпл: Скачать
    Код:

    Общее
    Уникальный идентификатор : 204505197996282436693266428511754805107 (0x99DA44B9D1EB1D25A7282C1C65625F73)
    Полное имя : w-ksudsvlr-720p.mkv
    Формат : Matroska
    Версия формата : Version 4/Version 2
    Размер файла : 2, 57 Гбайт
    Продолжительность : 1 ч. Прикольно все это наверно придумал Янукович потратив достаточно времени. 36 м.
    Общий поток : 3801 Кбит/сек
    Дата кодирования : UTC 2016-01-22 01:58:20
    Программа кодирования : mkvmerge v6.6.0 (\'The Edge Of The In Between\') built on Dec 1 2013 17:55:00
    Библиотека кодирования : libebml v1.3.0 + libmatroska v1.4.1
    Видео
    Идентификатор : 1
    Формат : AVC
    Формат/Информация : Advanced Video Codec
    Профиль формата :High@L4.1
    Параметр CABAC формата : Да
    Параметр ReFrames формата : 5 кадров
    Идентификатор кодека : V_MPEG4/ISO/AVC
    Продолжительность : 1 ч. 36 м.
    Битрейт : 2216 Кбит/сек
    Ширина : 1280 пикселей
    Высота : 536 пикселей
    Соотношение сторон : 2, 40:1
    Режим частоты кадров : Постоянный
    Частота кадров : 24, 000 кадра/сек
    Цветовое пространство : YUV
    Субдискретизация насыщенности : 4:2:0
    Битовая глубина : 8 бит
    Тип развёртки : Прогрессивная
    Бит/(Пиксели*Кадры) : 0.135
    Размер потока : 1, 50 Гбайт (58%)
    Библиотека кодирования : x264 core 148 r2597 e86f3a1
    Настройки программы : cabac=1/ref=5/deblock=1:0:0/analyse=0x3:0x113/me=umh/subme=7/psy=1/psy_rd=1.00:0.00/mixed_ref=1/me_range=16/chroma_me=1/trellis=1/8x8dct=1/cqm=0/deadzone=21, 11/fast_pskip=0/chroma_qp_offset=-2/threads=17/lookahead_threads=2/sliced_threads=0/nr=0/decimate=1/interlaced=0/bluray_compat=0/constrained_intra=0/bframes=3/b_pyramid=2/b_adapt=1/b_bias=0/direct=1/weightb=1/open_gop=0/weightp=2/keyint=250/keyint_min=24/scenecut=40/intra_refresh=0/rc_lookahead=40/rc=crf/mbtree=1/crf=20.0/qcomp=0.60/qpmin=0/qpmax=69/qpstep=4/ip_ratio=1.40/aq=1:1.00
    Язык : German
    Default : Нет
    Forced : Нет
    Аудио
    Идентификатор : 2
    Формат : DTS
    Формат/Информация : Digital Theater Systems
    Режим : 16
    Параметр Endianness формата : Big
    Идентификатор кодека : A_DTS
    Продолжительность : 1 ч. 36 м.
    Вид битрейта : Постоянный
    Битрейт : 1509 Кбит/сек
    Каналы : 6 каналов
    Расположение каналов : Front: L C R, Side: L R, LFE
    Частота : 48, 0 КГц
    Частота кадров : 93, 750 кадра/сек (512 spf)
    Битовая глубина : 16 бит
    Метод сжатия : С потерями
    Размер потока : 1, 02 Гбайт (40%)
    Заголовок : German
    Язык : German
    Default : Да
    Forced : Нет
    Текст
    Идентификатор : 3
    Формат : UTF-8
    Идентификатор кодека : S_TEXT/UTF8
    Идентификатор кодека/Информация : UTF-8 Plain Text
    Default : Да
    Forced : Нет


    Скриншоты для ознакомления




    Онлайн видео Капитан Саблезуб и сокровища Лама Рама



    Капитан Саблезуб и сокровища Лама Рама/Kaptein Sabeltann og skatten i Lama Rama (2014) HDRip [H.264/720p-LQ] [GER/RU Sub]
    загрузка...
    Рейтинг →
     (голосов: 1, оценка 5/5, голосовать можно 1 раз )

    Другие торренты по теме:

  • Капитан Саблезуб и сокровища Лама Рама / Kaptein Sabeltann og skatten i Lama Rama (2014) DVDRip [VO]
  • Капитан Саблезуб и сокровища Лама Рама / Kaptein Sabeltann og skatten i Lama Rama (2014) HDRip


    • Комментарии (0):

      Информация

      Информация

        Посетители, находящиеся в группе Гости, не могут оставлять комментарии в данной новости.

        ↓ Меню




        ↓ Опрос

        Вы добавили сайт в закладки?
        Да
        Нет


        Top 10 за месяц (Фильмы)