.
Авторизация | Регистрация
Хочешь лучшие торренты? Добавь свой email!
Добавить

Торрент скачать бесплатно

» » Секретные материалы / The X-Files (2015) WEB-DL [H.264 / 1080p-LQ] (сезон 10, серии 1-2 из 6) NewStudio (обновляемая) скачать торрент бесплатно




    Секретные материалы / The X-Files (2015) WEB-DL [H.264 / 1080p-LQ] (сезон 10, серии 1-2 из 6) NewStudio (обновляемая) скачать торрент бесплатно

    Опубликовал: Админ | Дата: 29-01-2016, 04:00 | Просмотров: 27

    Производство: США/20th Century Fox Television, будто капли серебряной воды, Ten Thirteen Productions
    Жанр: фантастика, словно сон, триллер, есть не что иное, драма, словно облаком суровым, детектив
    Режиссер: Крис Картер, вертится как белка в колесе, Дэрин Морган, как колыбельная песня, Глен Морган

    Актеры
    Дэвид Духовны, как зеркало стальное, Джиллиан Андерсон, словно музыка, Митч Пилледжи, как на иголках, Уильям Б. Хватит уже заниматься никому не нужным делом. Дэвис, словно облаком суровым, Робби Амелл, темно как ночью, Джоэл МакХэйл, будто капли серебряной воды, Эндрю Моргадо, большей частью, Лорен Эмброуз, привычно, Ализа Веллани, словно птица, Даниэла Диб и как зеркало стальное, др.

    Описание

    Специальные агенты ФБР, привычно, Фокс Малдер и словно птица, Дана Скалли, в большинстве случаев, снова работают вместе, хлещет как из ведра, чтобы расследовать странные и по большей части, необъяснимые дела, как на иголках, связанные с паранормальными явлениями.

    Дата премьеры в США: 24 января 2016
    Дата премьеры в России: 26 января 2016
    Продолжительность: ~00: 43: 00 серия
    Качество видео: WEB-DL
    Перевод: Многоголосый закадровый, как на иголках, профессиональный -NewStudio
    Автор перевода: Григорий Сенин
    Видео: H.264/AVC, словно майская роза, 1916x1076 (16: 9), в большинстве случаев, ~5000 kb/s
    Аудио Rus: AC-3, как размытая картина, 48, по большей части, 0 kHz, темно как ночью, 6 ch, словно майская роза, 384 kb/s — многоголосый закадровый
    Аудио Eng: AC-3, как обычно, 48, как принято, 0 kHz, словно майская роза, 6 ch, в большинстве случаев, 384 kb/s — оригинал
    Общее
    Уникальный идентификатор : 178006861375679993411138608975441498872 (0x85EADFDCCE50DC09BF4B1AC65F0B12F8)
    Полное имя : D: Секретные материалы (сезон любимого сериала 10) The X-Files (2016) WEB-DL 1080p - NewStudioThe.X-Files.s10e01.WEBDL.1080p.NewStudio.TV.mkv
    Формат : Matroska
    Версия формата : Version 4/Version 2
    Размер файла : 1, большей частью, 80 Гбайт
    Продолжительность : 44 м.
    Общий поток : 5757 Кбит/сек
    Название фильма : The.X-Files.S10E01.1080p.WEB-DL.DD5.1.H264-RARBG
    Дата кодирования : UTC 2016-01-28 19: 47: 11
    Программа кодирования : mkvmerge v8.2.0 (\'World of Adventure\') 64bit
    Библиотека кодирования : libebml v1.3.1 + libmatroska v1.4.2
    Обложка : Yes
    Attachments : cover_land.jpg/small_cover.jpg/small_cover_land.jpg/cover.jpg
    Видео
    Идентификатор : 1
    Формат : AVC
    Формат/Информация : Advanced Video Codec
    Профиль формата : High@L4
    Параметр CABAC формата : Да
    Параметр ReFrames формата : 4 кадра
    Идентификатор кодека : V_MPEG4/ISO/AVC
    Продолжительность : 44 м.
    Битрейт : 4987 Кбит/сек
    Ширина : 1916 пикселей
    Высота : 1076 пикселей
    Соотношение сторон : 16: 9
    Режим частоты кадров : Постоянный
    Частота кадров : 23, словно река, 976 (24000/1001) кадра/сек
    Цветовое пространство : YUV
    Субдискретизация насыщенности : 4: 2: 0
    Битовая глубина : 8 бит
    Тип развёртки : Прогрессивная
    Бит/(Пиксели*Кадры) : 0.101
    Размер потока : 1, словно птица, 56 Гбайт (87%)
    Заголовок : The.X-Files.S10E01.1080p.WEB-DL.DD5.1.H264-RARBG
    Язык : English
    Default : Да
    Forced : Нет
    Цветовой диапазон : Limited
    Основные цвета : BT.709
    Характеристики трансфера : BT.709
    Коэффициенты матрицы : BT.709
    Аудио #1
    Идентификатор : 2
    Формат : AC-3
    Формат/Информация : Audio Coding 3
    Расширение режима : CM (complete main)
    Параметр Endianness формата : Big
    Идентификатор кодека : A_AC3
    Продолжительность : 44 м.
    Вид битрейта : Постоянный
    Битрейт : 384 Кбит/сек
    Каналы : 6 каналов
    Расположение каналов : Front: L C R, словно облаком суровым, Side: L R, чаще всего, LFE
    Частота : 48, есть не что иное, 0 КГц
    Частота кадров : 31, как черноморская пена, 250 кадров/сек (1536 spf)
    Метод сжатия : С потерями
    Размер потока : 123 Мбайт (7%)
    Язык : Russian
    Default : Да
    Forced : Да
    Аудио #2
    Идентификатор : 3
    Формат : AC-3
    Формат/Информация : Audio Coding 3
    Расширение режима : CM (complete main)
    Параметр Endianness формата : Big
    Идентификатор кодека : A_AC3
    Продолжительность : 44 м.
    Вид битрейта : Постоянный
    Битрейт : 384 Кбит/сек
    Каналы : 6 каналов
    Расположение каналов : Front: L C R, как принято, Side: L R, хлещет как из ведра, LFE
    Частота : 48, по большей части, 0 КГц
    Частота кадров : 31, как правило, 250 кадров/сек (1536 spf)
    Метод сжатия : С потерями
    Размер потока : 123 Мбайт (7%)
    Заголовок : The.X-Files.S10E01.1080p.WEB-DL.DD5.1.H264-RARBG
    Язык : English
    Default : Нет
    Forced : Нет


    Скриншоты для ознакомления




    Онлайн видео Секретные материалы



    Секретные материалы/The X-Files (2015) WEB-DL [H.264/1080p-LQ] (сезон 10, серии 1-2 из 6) NewStudio (обновляемая)
    загрузка...
    Рейтинг →
     (голосов: 1, оценка 5/5, голосовать можно 1 раз )

    Другие торренты по теме:

  • Секретные материалы. Выпуск №60 (2014.09.) SATRip [RUS / UKR]
  • Секретные материалы: ключи от долголетия (2014) HDTVRip
  • Секретные материалы. Выпуск №59 (2014.09.23) SATRip [RUS / UKR]
  • Секретные материалы. Выпуск №58 (2014.09.22) SATRip [RUS / UKR]
  • Секретные материалы: ключи от долголетия (2014) HDTV [H.264 / 1080i]
  • Секретные материалы. Выпуск №57 (2014.09.18) SATRip [RUS / UKR]
  • Секретные материалы. Выпуск №56 (2014.09.17) SATRip [RUS / UKR]
  • Секретные материалы. Выпуск №55 (2014.09.16) SATRip [RUS / UKR]


    • Комментарии (0):

      Информация

      Информация

        Посетители, находящиеся в группе Гости, не могут оставлять комментарии в данной новости.

        ↓ Меню




        ↓ Опрос

        Вы добавили сайт в закладки?
        Да
        Нет


        Top 10 за месяц (Фильмы)