.
Авторизация | Регистрация
Хочешь лучшие торренты? Добавь свой email!
Добавить

Торрент скачать бесплатно

» » Секретные материалы / The X-Files (2016) WEB-DLRip (сезон 10, серии 1-2 из 6) NewStudio (обновляемая) торрент скачать бесплатно




    Секретные материалы / The X-Files (2016) WEB-DLRip (сезон 10, серии 1-2 из 6) NewStudio (обновляемая) торрент скачать бесплатно

    Опубликовал: Админ | Дата: 29-01-2016, 04:00 | Просмотров: 41

    Производство: США/20th Century Fox Television, Ten Thirteen Productions
    Жанр: фантастика, триллер, драма, детектив
    Режиссер: Крис Картер, Дэрин Морган, Глен Морган

    Актеры
    Дэвид Духовны, Джиллиан Андерсон, Митч Пилледжи, Уильям Б. Дэвис, Робби Амелл, Джоэл МакХэйл, Эндрю Моргадо, Лорен Эмброуз, Ализа Веллани, Даниэла Диб и др.

    Описание

    Специальные агенты ФБР, Фокс Малдер и Дана Скалли, снова работают вместе, чтобы расследовать странные и необъяснимые дела, связанные с паранормальными явлениями.

    Дата премьеры в США: 24 января 2016
    Дата премьеры в России: 26 января 2016
    Продолжительность: ~00: 45: 00 серия
    Качество видео: WEB-DLRip
    Перевод: Многоголосый закадровый, профессиональный -NewStudio
    Видео: XviD, 720x400 (16: 9), ~1428 Kbps
    Аудио Rus: MP3, 48.0 KHz, 2 ch, 128 Kbps, CBR - многоголосый закадровый
    Аудио Eng: MP3, 48.0 KHz, 2 ch, 128 Kbps, CBR - оригинал
    Код:

    General
    Complete name : D:NNM-clubThe.X-Files.s10.WEBDLRip.NewStudio.TVThe.X-Files.s10e01.WEBDLRip.NewStudio.TV.avi
    Format : AVI
    Format/Info : Audio Video Interleave
    File size : 550 MiB
    Duration : 45mn 16s
    Overall bit rate : 1 698 Kbps
    Writing application : VirtualDubMod 1.5.10.2 (build 2540/release)
    Writing library : VirtualDubMod build 2540/release
    Video
    ID : 0
    Format : MPEG-4 Visual
    Format profile : Advanced Simple@L5
    Format settings, BVOP : 2
    Format settings, QPel : No
    Format settings, GMC : No warppoints
    Format settings, Matrix : Default (MPEG)
    Codec ID : XVID
    Codec ID/Hint : XviD
    Duration : 45mn 16s
    Bit rate : 1 428 Kbps
    Width : 720 pixels
    Height : 400 pixels
    Display aspect ratio : 16:9
    Frame rate : 23.976 fps
    Color space : YUV
    Chroma subsampling : 4:2:0
    Bit depth : 8 bits
    Scan type : Progressive
    Compression mode : Lossy
    Bits/(Pixel*Frame) : 0.207
    Stream size : 463 MiB (84%)
    Writing library : XviD 73
    Audio #1
    ID : 1
    Format : MPEG Audio
    Format version : Version 1
    Format profile : Layer 3
    Codec ID : 55
    Codec ID/Hint : MP3
    Duration : 45mn 16s
    Bit rate mode : Constant
    Bit rate : 128 Kbps
    Channel(s) : 2 channels
    Sampling rate : 48.0 KHz
    Compression mode : Lossy
    Stream size : 41.5 MiB (8%)
    Alignment : Aligned on interleaves
    Interleave, duration : 42 ms (1.00 video frame)
    Interleave, preload duration : 504 ms
    Audio #2
    ID : 2
    Format : MPEG Audio
    Format version : Version 1
    Format profile : Layer 3
    Mode : Joint stereo
    Codec ID : 55
    Codec ID/Hint : MP3
    Duration : 45mn 16s
    Bit rate mode : Constant
    Bit rate : 128 Kbps
    Channel(s) : 2 channels
    Sampling rate : 48.0 KHz
    Compression mode : Lossy
    Stream size : 41.5 MiB (8%)
    Alignment : Aligned on interleaves
    Interleave, duration : 42 ms (1.00 video frame)
    Interleave, preload duration : 504 ms
    Writing library : LAME3.99r
    Encoding settings : -m j -V 4 -q 2 -lowpass 17 -b 128


    Скриншоты для ознакомления




    Онлайн видео Секретные материалы



    Секретные материалы/The X-Files (2016) WEB-DLRip (сезон 10, серии 1-2 из 6) NewStudio (обновляемая)
    загрузка...
    Рейтинг →
     (голосов: 1, оценка 5/5, голосовать можно 1 раз )

    Другие торренты по теме:

  • Секретные материалы. Выпуск №60 (2014.09.) SATRip [RUS / UKR]
  • Секретные материалы: ключи от долголетия (2014) HDTVRip
  • Секретные материалы. Выпуск №59 (2014.09.23) SATRip [RUS / UKR]
  • Секретные материалы. Выпуск №58 (2014.09.22) SATRip [RUS / UKR]
  • Секретные материалы: ключи от долголетия (2014) HDTV [H.264 / 1080i]
  • Секретные материалы. Выпуск №57 (2014.09.18) SATRip [RUS / UKR]
  • Секретные материалы. Выпуск №56 (2014.09.17) SATRip [RUS / UKR]
  • Секретные материалы. Выпуск №55 (2014.09.16) SATRip [RUS / UKR]


    • Комментарии (0):

      Информация

      Информация

        Посетители, находящиеся в группе Гости, не могут оставлять комментарии в данной новости.

        ↓ Меню




        ↓ Опрос

        Вы добавили сайт в закладки?
        Да
        Нет


        Top 10 за месяц (Фильмы)