.
Авторизация | Регистрация
Хочешь лучшие торренты? Добавь свой email!
Добавить

Торрент скачать бесплатно

» » Сталкер (1979) BDRip [H.264 / 720p] [hand made colored] торрент скачать бесплатно




    Сталкер (1979) BDRip [H.264 / 720p] [hand made colored] торрент скачать бесплатно

    Опубликовал: Админ | Дата: 29-01-2016, 04:00 | Просмотров: 120

    Производство: СССР, Мосфильм
    Жанр: Фантастика, Драма, Детектив, Приключения
    Режиссер: Андрей Тарковский

    Актеры
    Александр Кайдановский, Анатолий Солоницын, Алиса Фрейндлих, Николай Гринько, Наташа Абрамова, Файме Юрно, Раймо Ренди, Сергей Яковлев, Владимир Заманский

    Описание

    В этой ленте, снятой по мотивам повести братьев Стругацких Пикник на обочине, действие происходит в некой запретной Зоне, где, по слухам, существует комната, где исполняются самые заветные желания. Прикольно все это наверно придумал Шварценеггер потратив достаточно времени. К этой комнате отправляются модный Писатель и авторитетный Профессор - каждый по своим причинам, о которых предпочитают не говорить. А ведет их туда Сталкер - проводник по Зоне - то ли юродивый, то ли апостол новой веры…

    Продолжительность: 02: 41: 44
    Качество видео: BDRip 720p
    Видео: AVC/H.264, 960х720 (4: 3), ~6000 Kbps, 23.976 fps
    Аудио 1: AAC, 2 ch, 128 kbps, 48 kHz
    Аудио 2: AC3, 2 ch, 640 kbps, 48 kHz
    Код:

    General
    Unique ID : 191356754608189953986536331939785145651 (0x8FF5F86A90E1F7A90449E37A965EFD33)
    Complete name : G:Download_GStalker_colorStalker_1_seriya_color.mkv
    Format : Matroska
    Format version : Version 2
    File size : 3.95 GiB
    Duration : 1h 23mn
    Overall bit rate : 6 752 Kbps
    Writing application : Lavf55.7.100
    Writing library : Lavf55.7.100
    LABEL : Chapter 1
    TCHAPTER : 71461824
    Language : eng
    Video
    ID : 1
    Format : AVC
    Format/Info : Advanced Video Codec
    Format profile :Main@L3.1
    Format settings, CABAC : Yes
    Format settings, ReFrames : 3 frames
    Codec ID : V_MPEG4/ISO/AVC
    Duration : 1h 23mn
    Width : 960 pixels
    Height : 720 pixels
    Display aspect ratio : 4:3
    Frame rate mode : Constant
    Frame rate : 23.976 fps
    Standard : NTSC
    Color space : YUV
    Chroma subsampling : 4:2:0
    Bit depth : 8 bits
    Scan type : Progressive
    Title : Main video
    Language : English
    Default : Yes
    Forced : No
    Encoded date : UTC 2016-01-28 06:40:11
    Color range : Limited
    HANDLER_NAME : Mainconcept MP4 Video Media Handler
    PART_NUMBER : 0
    Audio #1
    ID : 2
    Format : AAC
    Format/Info : Advanced Audio Codec
    Format profile : LC
    Codec ID : A_AAC
    Duration : 1h 23mn
    Channel(s) : 2 channels
    Channel positions : Front: L R
    Sampling rate : 48.0 KHz
    Compression mode : Lossy
    Delay relative to video : 2ms
    Title : Russian
    Language : Russian
    Default : No
    Forced : No
    PART_NUMBER : 1
    Audio #2
    ID : 3
    Format : AC-3
    Format/Info : Audio Coding 3
    Mode extension : CM (complete main)
    Format settings, Endianness : Big
    Codec ID : A_AC3
    Duration : 1h 23mn
    Bit rate mode : Constant
    Bit rate : 640 Kbps
    Channel(s) : 2 channels
    Channel positions : Front: L R
    Sampling rate : 48.0 KHz
    Bit depth : 32 bits
    Compression mode : Lossy
    Delay relative to video : 13ms
    Stream size : 383 MiB (9%)
    Title : Russian
    Language : Russian
    Default : Yes
    Forced : No
    PART_NUMBER : 2
    Menu
    00:00:00.000 : :Chapter 1
    General
    Unique ID : 181300712940957638225307949041638879682 (0x88653F4871F1F8854554828D4272B1C2)
    Complete name : G:Download_GStalker_colorStalker_2_seriya_color.mkv
    Format : Matroska
    Format version : Version 2
    File size : 3.68 GiB
    Duration : 1h 17mn
    Overall bit rate : 6 761 Kbps
    Writing application : Lavf55.7.100
    Writing library : Lavf55.7.100
    LABEL : Chapter 1
    TCHAPTER : 94506240
    Language : eng
    Video
    ID : 1
    Format : AVC
    Format/Info : Advanced Video Codec
    Format profile :Main@L3.1
    Format settings, CABAC : Yes
    Format settings, ReFrames : 3 frames
    Format settings, GOP : M=4, N=33
    Codec ID : V_MPEG4/ISO/AVC
    Duration : 1h 17mn
    Width : 960 pixels
    Height : 720 pixels
    Display aspect ratio : 4:3
    Frame rate mode : Constant
    Frame rate : 23.976 fps
    Standard : NTSC
    Color space : YUV
    Chroma subsampling : 4:2:0
    Bit depth : 8 bits
    Scan type : Progressive
    Title : Main video
    Language : English
    Default : Yes
    Forced : No
    Encoded date : UTC 2016-01-28 10:36:47
    Color range : Limited
    HANDLER_NAME : Mainconcept MP4 Video Media Handler
    PART_NUMBER : 0
    Audio #1
    ID : 2
    Format : AAC
    Format/Info : Advanced Audio Codec
    Format profile : LC
    Codec ID : A_AAC
    Duration : 1h 17mn
    Channel(s) : 2 channels
    Channel positions : Front: L R
    Sampling rate : 48.0 KHz
    Compression mode : Lossy
    Delay relative to video : 2ms
    Title : Russian
    Language : Russian
    Default : No
    Forced : No
    PART_NUMBER : 1
    Audio #2
    ID : 3
    Format : AC-3
    Format/Info : Audio Coding 3
    Mode extension : CM (complete main)
    Format settings, Endianness : Big
    Codec ID : A_AC3
    Duration : 1h 17mn
    Bit rate mode : Constant
    Bit rate : 640 Kbps
    Channel(s) : 2 channels
    Channel positions : Front: L R
    Sampling rate : 48.0 KHz
    Bit depth : 32 bits
    Compression mode : Lossy
    Delay relative to video : 13ms
    Stream size : 357 MiB (9%)
    Title : Unspecified
    Language : Unspecified
    Default : Yes
    Forced : No
    PART_NUMBER : 2
    Menu
    00:00:00.000 : :Chapter 1


    Скриншоты для ознакомления




    Онлайн видео Сталкер (1979) BDRip [H.264



    Сталкер (1979) BDRip [H.264/720p] [hand made colored]
    загрузка...
    Рейтинг →
     (голосов: 1, оценка 3/5, голосовать можно 1 раз )

    Другие торренты по теме:

  • Сталкер (1979) BDRip [H.264 / 720p] скачать через торрент бесплатно
  • Сталкер / Stalker (1979) BDRip [H.264 / 1080p] скачать через торрент бесплатно
  • Сталкер (1979) BDRip [H.264 / 720p] [hand made 60fps] скачать через торрент бесплатно
  • Сталкер (1979) BDRip [H.264 / 1080p] [hand made 60fps]
  • Сталкер (1979) BDRip [H.264 / 720p] [hand made colored]
  • Сталкер (1979) BDRip [H.264 / 1080p] [Remastered]


    • Комментарии (0):

      Информация

      Информация

        Посетители, находящиеся в группе Гости, не могут оставлять комментарии в данной новости.

        ↓ Меню




        ↓ Опрос

        Вы добавили сайт в закладки?
        Да
        Нет


        Top 10 за месяц (Фильмы)