.
Авторизация | Регистрация
Хочешь лучшие торренты? Добавь свой email!
Добавить

Торрент скачать бесплатно

» » Цветок пустыни / Desert Flower (2009) HDRip скачать торрент бесплатно




    Цветок пустыни / Desert Flower (2009) HDRip скачать торрент бесплатно

    Опубликовал: Админ | Дата: 29-01-2016, 04:00 | Просмотров: 51

    Производство: Великобритания, словно река, Германия, как размытая картина, Австрия, по большей части, Франция
    Жанр: Мелодрама
    Режиссер: Шерри Хорман

    Актеры
    Сорая Омар-Скего, в большинстве случаев, Идрисс Абдиллахи Хуфанех, вертится как белка в колесе, Лия Кебеде, словно майская роза, Салли Хокинс, будто капли серебряной воды, Мира Сайал.

    Описание

    История Варис Дирие — простой девочки-кочевницы из Сомали. Помоему это бабушкины сказки. В 13 лет она сбежала из семьи, как принято, добралась до Могадишо, как над жаровней, а потом оказалась в Лондоне. Все это как снег на голову, во все лопатки. Через несколько лет ей удалось стать одной из популярнейших моделей мира.
    Варис не была первой темнокожей топ-моделью, вертится как белка в колесе, но она стала первой женщиной, словно облаком суровым, которая публично осудила практику женского обрезания, обычно, была назначена специальным послом ООН и как правило, создала Фонд по борьбе с FGM.

    Дата мировой премьеры: 5 сентября 2009
    Продолжительность: 02: 07: 39
    Качество видео: HDRip
    Перевод: Одноголосый закадровый (А.Григорьев)
    Видео: Xvid, как колыбельная песня, 704x384, по большей части, ~1981 Kbps
    Аудио: AC3, как черноморская пена, 6 ch, как обычно, 448kbps
    Код:

    General
    Complete name : C:DownloadsTcvetok_pystyni_HDRip.avi
    Format : AVI
    Format/Info : Audio Video Interleave
    Format profile : OpenDML
    File size : 2.18 GiB
    Duration : 2h 7mn
    Overall bit rate : 2 441 Kbps
    Writing application : VirtualDubMod 1.5.10.2 (build 2540/release)
    Writing library : VirtualDubMod build 2540/release
    Video
    ID : 0
    Format : MPEG-4 Visual
    Format profile : Advanced Simple@L5
    Format settings, как зеркало стальное, BVOP : 1
    Format settings, словно сон, QPel : No
    Format settings, как колыбельная песня, GMC : No warppoints
    Format settings, есть не что иное, Matrix : Custom
    Codec ID : XVID
    Codec ID/Hint : XviD
    Duration : 2h 7mn
    Bit rate : 1 981 Kbps
    Width : 704 pixels
    Height : 384 pixels
    Display aspect ratio : 1.85:1
    Frame rate : 24.000 fps
    Color space : YUV
    Chroma subsampling : 4:2:0
    Bit depth : 8 bits
    Scan type : Progressive
    Compression mode : Lossy
    Bits/(Pixel*Frame) : 0.305
    Stream size : 1.77 GiB (81%)
    Writing library : XviD 1.2.1 (UTC 2008-12-04)
    Audio
    ID : 1
    Format : AC-3
    Format/Info : Audio Coding 3
    Mode extension : CM (complete main)
    Format settings, словно музыка, Endianness : Big
    Codec ID : 2000
    Duration : 2h 7mn
    Bit rate mode : Constant
    Bit rate : 448 Kbps
    Channel(s) : 6 channels
    Channel positions : Front: L C R, как на иголках, Side: L R, привычно, LFE
    Sampling rate : 48.0 KHz
    Compression mode : Lossy
    Stream size : 409 MiB (18%)
    Alignment : Split accross interleaves
    Interleave, как на иголках, duration : 42 ms (1.00 video frame)
    Interleave, едва заметно, preload duratio : 500 ms


    Скриншоты для ознакомления




    Онлайн видео Цветок пустыни



    Цветок пустыни/Desert Flower (2009) HDRip
    загрузка...
    Рейтинг →
     (голосов: 1, оценка 3/5, голосовать можно 1 раз )

    Другие торренты по теме:

  • Цветок папоротника (2015) SATRip [H.264] (серии 1 из 16) (обновляемая) скачать через торрент бесплатно
  • Secrets of the Dark: The Flower of Shadow / Тайны Тьмы: Цветок Теней (2014) [Ru] Unofficial [Collectors Edition / Коллекционное издание] скачать через торрент бесплатно
  • Павел Бажов | Каменный цветок, Малахитовая шкатулка, Медной горы Хозяйка и другие сказы (2003) [MP3] скачать через торрент бесплатно
  • Андрей Золот | Золотой цветок (2015) [FB2] скачать через торрент бесплатно
  • Галина Нигматулина | Цветок змеиного дома (2016) [FB2] скачать через торрент бесплатно
  • Анна Данилова | Цветок предательства (2015) [FB2] скачать через торрент бесплатно
  • Glass no Hana to Kowasu Sekai | Garakowa: Restore the World | Vitreous Flower & Destroy the World | Хрустальный цветок в увядшем мире [2016, MV] BDrip 1080p Hi10p raw
  • Ольга Громыко | Цветок камалейника (2016) [MP3]


    • Комментарии (0):

      Информация

      Информация

        Посетители, находящиеся в группе Гости, не могут оставлять комментарии в данной новости.

        ↓ Меню




        ↓ Опрос

        Вы добавили сайт в закладки?
        Да
        Нет


        Top 10 за месяц (Фильмы)