.
Авторизация | Регистрация
Хочешь лучшие торренты? Добавь свой email!
Добавить

Торрент скачать бесплатно

» » Люцифер / Lucifer (2015) WEB-DLRip (сезон 1, серии 1 из 13) BaibaKo (обновляемая) торрент скачать бесплатно




    Люцифер / Lucifer (2015) WEB-DLRip (сезон 1, серии 1 из 13) BaibaKo (обновляемая) торрент скачать бесплатно

    Опубликовал: Админ | Дата: 28-01-2016, 04:00 | Просмотров: 137

    Производство: США/Aggressive Mediocrity, DC Entertainment, Jerry Bruckheimer Television
    Жанр: фэнтези
    Режиссер: Нэйтан Хоуп, Лен Уайзман, Майрзи Алмас

    Актеры
    Том Эллис, Лорен Джерман, Лесли-Энн Брандт, Кевин Алехандро, Рэйчел Харрис, Д.Б. Вудсайд, Скарлет Эстевез, Локлин Манро, Ивэн Арнольд, Эмили Мэддисон и др.

    Описание

    Заскучавший и несчастный повелитель преисподней, Люцифер Морнингстар оставил свой престол и отправился в современный Лос-Анджелес, где основал ночной клуб Lux. Очаровательный, харизматичный и дьявольски привлекательный Люцифер наслаждается своим отдыхом — вином, женщинами и музыкой — пока красивая поп-звезда не оказывается убитой на пороге его клуба…

    Дата мировой премьеры: 25 января 2016
    Продолжительность: ~00: 44: 00 серия
    Качество видео: WEB-DLRip
    Перевод: Многоголосый закадровый, профессиональный -BaibaKo
    Автор перевода: Ольга Пашкова и Наталья Захарова
    Озвучка: Светлана Доманова, Юля Малахова, Алексей Кузнецов и Олекса Мельник
    Видео: XviD, 720x400 (16: 9), ~1500 kb/s
    Аудио Rus: MPEG Layer 3, 48, 0 kHz, 2 ch, 192 kb/s — многоголосый закадровый
    Аудио Eng: MPEG Layer 3, 48, 0 kHz, 2 ch, 192 kb/s — оригинал
    Общее
    Полное имя : D: Люцифер (сезон любимого сериала 1) Lucifer (2015) WEB-DLRip - BaibaKoLucifer.s01e01.WEB-DLRip.XviD.Rus.Eng.BaibaKo.tv.avi
    Формат : AVI
    Формат/Информация : Audio Video Interleave
    Размер файла : 613 Мбайт
    Продолжительность : 45 м.
    Общий поток : 1902 Кбит/сек
    Программа кодирования : VirtualDubModRus 1.5.10.2 (build 2542/release)
    Библиотека кодирования : VirtualDubMod build 2542/release
    Видео
    Идентификатор : 0
    Формат : MPEG-4 Visual
    Профиль формата : Advanced Simple@L5
    Параметр BVOP формата : 2
    Параметр QPel формата : Нет
    Параметр GMC формата : Без точки перехода
    Параметр матрицы формата : Default (H.263)
    Идентификатор кодека : XVID
    Идентификатор кодека/Подсказка : XviD
    Продолжительность : 45 м.
    Битрейт : 1503 Кбит/сек
    Ширина : 720 пикселей
    Высота : 400 пикселей
    Соотношение сторон : 16: 9
    Частота кадров : 23, 976 (24000/1001) кадра/сек
    Цветовое пространство : YUV
    Субдискретизация насыщенности : 4: 2: 0
    Битовая глубина : 8 бит
    Тип развёртки : Прогрессивная
    Метод сжатия : С потерями
    Бит/(Пиксели*Кадры) : 0.218
    Размер потока : 484 Мбайт (79%)
    Библиотека кодирования : XviD 64
    Аудио #1
    Идентификатор : 1
    Формат : MPEG Audio
    Версия формата : Version 1
    Профиль формата : Layer 3
    Режим : Joint stereo
    Идентификатор кодека : 55
    Идентификатор кодека/Подсказка : MP3
    Продолжительность : 45 м.
    Вид битрейта : Постоянный
    Битрейт : 192 Кбит/сек
    Каналы : 2 канала
    Частота : 48, 0 КГц
    Метод сжатия : С потерями
    Размер потока : 61, 8 Мбайт (10%)
    Выравнивание : Разделение по промежуткам
    Продолжительность промежутка : 42 мс. (1, 00 видеокадр)
    Время предзагрузки промежутка : 500 мс.
    Аудио #2
    Идентификатор : 2
    Формат : MPEG Audio
    Версия формата : Version 1
    Профиль формата : Layer 3
    Режим : Joint stereo
    Идентификатор кодека : 55
    Идентификатор кодека/Подсказка : MP3
    Продолжительность : 45 м.
    Вид битрейта : Постоянный
    Битрейт : 192 Кбит/сек
    Каналы : 2 канала
    Частота : 48, 0 КГц
    Метод сжатия : С потерями
    Размер потока : 61, 8 Мбайт (10%)
    Выравнивание : Разделение по промежуткам
    Продолжительность промежутка : 42 мс. Самое интересное в это истории, что об этом Гендельф ничего не знал. (1, 00 видеокадр)
    Время предзагрузки промежутка : 500 мс.


    Скриншоты для ознакомления




    Онлайн видео Люцифер



    Люцифер/Lucifer (2015) WEB-DLRip (сезон 1, серии 1 из 13) BaibaKo (обновляемая)
    загрузка...
    Рейтинг →
     (голосов: 1, оценка 5/5, голосовать можно 1 раз )

    Другие торренты по теме:

  • Люцифер / Lucifer (2015) HDTV [H.264 / 720p-LQ] (сезон 1, серия 1 из ) [EN / RU, EN Sub] скачать через торрент бесплатно
  • Люцифер / Lucifer (2015) HDTV [H.264 / 1080p] (сезон 1, серии 1 из ) NewStudio (обновляемая) скачать через торрент бесплатно
  • Люцифер / Lucifer (2015) HDTVRip (сезон 1, серия 1 из ) (NewStudio) (обновляемая) скачать через торрент бесплатно
  • Люцифер / Lucifer (2015) HDTV [H.264 / 720p-LQ] (сезон 1, серия 1 из ) (NewStudio) (обновляемая) скачать через торрент бесплатно
  • Люцифер / Lucifer (2015) WEB-DLRip (сезон 1, серия 1 из 13) Alternative Production (обновляемая) скачать через торрент бесплатно
  • Люцифер / Lucifer (2016) WEB-DL [H.264 / 720p-LQ] (сезон 1, серии 1 из 13) BaibaKo (обновляемая)
  • Люцифер / Lucifer (2016) WEB-DLRip [H.264] (сезон 1, серии 1 из 13) BaibaKo [MP4|720x400]
  • Люцифер / Lucifer (2015) WEB-DL [H.264 / 720p-LQ] (сезон 1, серии 1-2 из 13) IdeaFilm (обновляемая)


    • Комментарии (0):

      Информация

      Информация

        Посетители, находящиеся в группе Гости, не могут оставлять комментарии в данной новости.

        ↓ Меню




        ↓ Опрос

        Вы добавили сайт в закладки?
        Да
        Нет


        Top 10 за месяц (Фильмы)