.
Авторизация | Регистрация
Хочешь лучшие торренты? Добавь свой email!
Добавить

Торрент скачать бесплатно

» » Интерны (2016) DVB (сезон 14, серии 1-3 из 20) (обновляемая) торрент скачать бесплатно




    Интерны (2016) DVB (сезон 14, серии 1-3 из 20) (обновляемая) торрент скачать бесплатно

    Опубликовал: Админ | Дата: 28-01-2016, 04:00 | Просмотров: 58

    Производство: Россия/Comedy Club Production
    Жанр: комедия, ситком
    Режиссер: Максим Пежемский, Дина Штурманова

    Актеры
    Иван Охлобыстин, Илья Глинников, Вадим Демчог, Светлана Камынина, Юлия Назаренко-Благая, Один Ланд Байрон, Светлана Пермякова, Александр Ляпин, Аглая Тарасова, Яна Гурьянова, Азамат Мусагалиев, Дмитрий Шаракоис и др.

    Описание

    Новыми комическими сюрпризами и незабываемыми ситуациями наполнен новый сезон любимого сериала телесериала Интерны. Ни один персонаж не останется в стороне, - режиссеры российского сериала задействует всех мини-врачей прошлых серий в самых смешных эпизодах.
    Непревзойденный Иван Охлобыстин, по-прежнему играет Быкова, который занимает главенствующую роль заведующего терапевтическим отделением. Он не теряет своего профессионализма в врачебном деле и, при этом, настолько переполнен харизмой нрава, что излучает своим ироничным поведением сплошное отрицательное обоняние, которое так притягивает к телеэкрану каждого зрителя.
    Сезон комического сериала Интерны знакомит нас с новыми учениками Быкова, ведь старые интерны давно уже изменились... Неуверенная ранее в себе Софья взяла под каблук Романенко. Самое интересное в это истории, что об этом Валуев ничего не знал. Максу, наконец-то, удается понравиться самому Андрею Быкову. А девушки теперь без ума от Андрюхи Мальцева...

    Продолжительность: ~ 00: 25: 00 серия
    Качество видео: DVB
    Видео: MPEG-2, 720x576@768x576, ~ 3000 Кбит/сек
    Аудио #1: MP2, 2 канала, 192 Кбит/сек
    Аудио #2: MP2, 2 канала (Dual mono), 160 Кбит/сек
    Код:

    Общее
    Идентификатор : 1 (0x1)
    Полное имя : C:Интерны - Финальный сезон любимого сериалаs14e01.ts
    Формат : MPEG-TS
    Размер файла : 597 Мбайт
    Продолжительность : 23 м.
    Режим общего битрейта : Переменный
    Общий поток : 3513 Кбит/сек
    Видео
    Идентификатор : 321 (0x141)
    Идентификатор меню : 10302 (0x283E)
    Формат : MPEG Video
    Версия формата : Version 2
    Профиль формата : Main@Main
    Параметр BVOP формата : Да
    Параметр матрицы формата : Выборочная
    Параметр GOP формата : M=3, N=36
    Структура изображения : Frame
    Идентификатор кодека : 2
    Продолжительность : 23 м.
    Вид битрейта : Переменный
    Битрейт : 2983 Кбит/сек
    Максимальный битрейт : 15, 0 Мбит/сек
    Ширина : 720 пикселей
    Высота : 576 пикселей
    Соотношение сторон : 4:3
    Частота кадров : 25, 000 кадров/сек
    Стандарт вещания : PAL
    Цветовое пространство : YUV
    Субдискретизация насыщенности : 4:2:0
    Битовая глубина : 8 бит
    Тип развёртки : Чересстрочная
    Порядок развёртки : Верхнее поле первое
    Метод сжатия : С потерями
    Бит/(Пиксели*Кадры) : 0.288
    Временной код первого кадра : 00:00:00:00
    Оригинал временного кода : Group of pictures t_head
    GOP, открыто/закрыто : Открыто
    GOP, открыто/закрыто на первом кадре : Закрыто
    Размер потока : 507 Мбайт (85%)
    Аудио #1
    Идентификатор : 402 (0x192)
    Идентификатор меню : 10302 (0x283E)
    Формат : MPEG Audio
    Версия формата : Version 1
    Профиль формата : Layer 2
    Идентификатор кодека : 3
    Продолжительность : 23 м.
    Вид битрейта : Постоянный
    Битрейт : 192 Кбит/сек
    Каналы : 2 канала
    Частота : 48, 0 КГц
    Метод сжатия : С потерями
    Задержка видео : 13 мс.
    Размер потока : 32, 6 Мбайт (5%)
    Язык : Russian
    Аудио #2
    Идентификатор : 403 (0x193)
    Идентификатор меню : 10302 (0x283E)
    Формат : MPEG Audio
    Версия формата : Version 1
    Профиль формата : Layer 2
    Режим : Dual mono
    Идентификатор кодека : 3
    Продолжительность : 23 м.
    Вид битрейта : Постоянный
    Битрейт : 160 Кбит/сек
    Каналы : 2 канала
    Частота : 48, 0 КГц
    Метод сжатия : С потерями
    Задержка видео : 13 мс.
    Размер потока : 27, 2 Мбайт (5%)
    Язык : English


    Скриншоты для ознакомления




    Онлайн видео Интерны (2016) DVB (сезон любимого сериала 14, серии 1



    Интерны (2016) DVB (сезон 14, серии 1-3 из 20) (обновляемая)
    загрузка...
    Рейтинг →
     (голосов: 1, оценка 3/5, голосовать можно 1 раз )

    Другие торренты по теме:

  • Интерны (2014) WEB-DLRip (сезон 11, 1-2 серия из 23) (Обновляемая) скачать через торрент бесплатно
  • Интерны (2014) WEB-DL [720p] (Сезон 11, серии 1-2 из 23) (Обновляемая) скачать через торрент бесплатно
  • Интерны (2014) SATRip (Сезон 11, серии 1-2 из 23) (Обновляемая) скачать через торрент бесплатно
  • Интерны (2014) WEB DLRip [H.264] (Сезон 11, серии 1-6 из 23) (Обновляемая)
  • Интерны (2015) WEB-DLRip (сезон 12, серии 1- из 20) (обновлянмая)
  • Интерны (2015) WEB-DLRip [H.264 / 720p-LQ] (сезон 12, серии 1- из 20) (обновлянмая)
  • Интерны (2015) WEB-DLRip [H.264] (сезон 12, серии 1-2 из 20) (обновляемая) скачать через торрент бесплатно
  • Интерны (2015) WEB-DLRip (сезон 13, серии 1- из 20) (обновляемая) скачать через торрент бесплатно


    • Комментарии (0):

      Информация

      Информация

        Посетители, находящиеся в группе Гости, не могут оставлять комментарии в данной новости.

        ↓ Меню




        ↓ Опрос

        Вы добавили сайт в закладки?
        Да
        Нет


        Top 10 за месяц (Фильмы)

        Кинг Конг / King Kong (2005) BDRip [H.265 / 1080p] [Extended Cut]

        (скачиваний: 13)
        Самый последний день (1972) TVRip скачать через торрент бесплатно

        (скачиваний: 12)
        Собачья жизнь / A Dogs Purpose (2017) BDRip [H.264 / 1080p]

        (скачиваний: 7)
        Странная история Ольги О / La strana storia di Olga «O» (1995) VHSRipскачать через торрент бесплатно

        (скачиваний: 7)
        Тарзан и его подруга / Tarzan and His Mate (1934) DVDRip [H.264 / hand made colored] скачать через торрент бесплатно

        (скачиваний: 6)
        Мафиоза / Mafiosa, le clan (2006-2012) DVDRip (Сезон 1-4, серии 1-32 из 32) [UKR]

        (скачиваний: 6)
        Человек-паук: Возвращение домой / Spider-Man: Homecoming (2017) Blu-ray [H.264 / 1080p]

        (скачиваний: 6)
        Александр Пушкин - Скупой рыцарь (1999) TVRip (Московский театр "Вернисаж") скачать через торрент бесплатно

        (скачиваний: 5)
        Колокола времени / The Passing Bells (2014) HDTVRip [H.264 / 720p-LQ] (сезон 1, серии 1-5 из 5) Project Web Money

        (скачиваний: 4)
        К северу от Аляски / North to Alaska (1960) BDRip [H.264] скачать через торрент бесплатно

        (скачиваний: 4)