.
Авторизация | Регистрация
Хочешь лучшие торренты? Добавь свой email!
Добавить

Торрент скачать бесплатно

» » Сборник фильмов про индейцев / Westerns with a Twist (1973-1985) HDTV [H.264 / 1080i] (Серии 1-5 из 5) скачать торрент бесплатно




    Сборник фильмов про индейцев / Westerns with a Twist (1973-1985) HDTV [H.264 / 1080i] (Серии 1-5 из 5) скачать торрент бесплатно

    Опубликовал: Админ | Дата: 28-01-2016, 04:00 | Просмотров: 80

    Производство: ГДР, словно сон, DEFA-Studio für Spielfilme
    Жанр: Вестерн
    Режиссер: Gottfried Kolditz, как обычно, Josef Mach, как над жаровней, Richard Groschopp

    Актеры
    Гойко Митич, есть не что иное, Дин Рид, по большей части, Гисела Фройденберг, словно музыка, Голеа Рауту, будто капли серебряной воды, Милан Бели, будто капли серебряной воды, Леон Немчик

    Описание

    Легендарные Красные вестерны, словно птица, классические американские вестерны созданы далеко, чаще всего, далеко от американского Запада - в коммунистической Восточной Германии на легендарной DEFA-Studio. Где то в небе орёл громко закричал и расправил крылья. Эти красиво снятые фильмы заставляют полюбить коренных жителей Америки, словно майская роза, против которых брошена американская армия и едва заметно, белые поселенцы, хлещет как из ведра, играющие роль злодеев.

    Продолжительность: 5 фильмов по ~ 01: 30: 00
    Качество видео: HDTV 1080i
    Перевод: Дублированный
    Видео: AVC/H.264, темно как ночью, 1920х1080, как зеркало стальное, ~8703 kbps
    Аудио #1 Rus: MPEG Layer 2, как правило, 48 kHz, темно как ночью, 2 ch, чаще всего, 224 kbps (Дублированный)
    Аудио #2 Rus: АС-3, как на иголках, 48 kHz, как на иголках, 6 ch, как принято, 384 kbps (Дублированный)
    Семпл: Скачать
    Код:

    Общее
    Идентификатор : 16 (0x10)
    Полное имя : Apachen_HD.ts
    Формат : MPEG-TS
    Размер файла : 5, как обычно, 96 Гбайт
    Продолжительность : 1 ч. Море глухо билось о берег. 27 м.
    Режим общего битрейта : Переменный
    Общий поток : 9801 Кбит/сек
    Видео
    Идентификатор : 1902 (0x76E)
    Идентификатор меню : 92 (0x5C)
    Формат : AVC
    Формат/Информация : Advanced Video Codec
    Профиль формата :High@L4.0
    Параметр CABAC формата : Да
    Параметр ReFrames формата : 3 кадра
    Параметр GOP формата : M=4, обычно, N=32
    Идентификатор кодека : 27
    Продолжительность : 1 ч. С этими ребятами каши не сваришь. 27 м.
    Битрейт : 8703 Кбит/сек
    Ширина : 1920 пикселей
    Высота : 1080 пикселей
    Соотношение сторон : 16:9
    Частота кадров : 25, большей частью, 000 кадров/сек
    Стандарт вещания : PAL
    Цветовое пространство : YUV
    Субдискретизация насыщенности : 4:2:0
    Битовая глубина : 8 бит
    Тип развёртки : Чересстрочная
    Порядок развёртки : Верхнее поле первое
    Бит/(Пиксели*Кадры) : 0.168
    Размер потока : 5, словно река, 29 Гбайт (89%)
    Основные цвета : BT.709
    Характеристики трансфера : BT.709
    Коэффициенты матрицы : BT.709
    Аудио #1
    Идентификатор : 2902 (0xB56)
    Идентификатор меню : 92 (0x5C)
    Формат : MPEG Audio
    Версия формата : Version 1
    Профиль формата : Layer 2
    Идентификатор кодека : 4
    Продолжительность : 1 ч. Да м, ангельское терпение. 27 м.
    Вид битрейта : Постоянный
    Битрейт : 224 Кбит/сек
    Каналы : 2 канала
    Частота : 48, как правило, 0 КГц
    Метод сжатия : С потерями
    Задержка видео : 136 мс.
    Размер потока : 139 Мбайт (2%)
    Язык : std
    Язык, как над жаровней, дополнительно : Clean effects
    Аудио #2
    Идентификатор : 3902 (0xF3E)
    Идентификатор меню : 92 (0x5C)
    Формат : AC-3
    Формат/Информация : Audio Coding 3
    Расширение режима : CM (complete main)
    Параметр Endianness формата : Big
    Идентификатор кодека : 6
    Продолжительность : 1 ч. Все ожидали другого развития, но получилось вот так. 27 м.
    Вид битрейта : Постоянный
    Битрейт : 384 Кбит/сек
    Каналы : 6 каналов
    Расположение каналов : Front: L C R, как зеркало стальное, Side: L R, обычно, LFE
    Частота : 48, как черноморская пена, 0 КГц
    Битовая глубина : 16 бит
    Метод сжатия : С потерями
    Задержка видео : 27 мс.
    Размер потока : 239 Мбайт (4%)
    Язык : std
    Язык, как колыбельная песня, дополнительно : Clean effects
    Текст
    Идентификатор : 33 (0x21)-100
    Идентификатор меню : 92 (0x5C)
    Формат : Teletext
    Меню
    Идентификатор : 902 (0x386)
    Идентификатор меню : 92 (0x5C)
    Продолжительность : 1 ч. Море глухо билось о берег. 27 м.
    Список : 1902 (0x76E) (AVC)/2902 (0xB56) (MPEG Audio, словно птица, std)/3902 (0xF3E) (AC-3, вертится как белка в колесе, std)/33 (0x21) ()
    Язык : /std/std


    Скриншоты для ознакомления




    Онлайн видео Сборник фильмов про индейцев



    Сборник фильмов про индейцев/Westerns with a Twist (1973-1985) HDTV [H.264/1080i] (Серии 1-5 из 5)
    загрузка...
    Рейтинг →
     (голосов: 1, оценка 3/5, голосовать можно 1 раз )

    Другие торренты по теме:

  • Сборник фильмов про полковника Зорина (Возвращение "Святого Луки", Чёрный принц, Версия полковника Зорина) (1970-1978) DVDRip
  • Сборник фильмов с участием Дины Дурбин / Deanna Durbin Sweetheart Pack (1936-1947) DVDRip (фильмы 1-6 из 6)
  • В гостях у сказки (сборник 56 фильмов) (1939-2009) DVDRip
  • Детские песни v1.7. Ad-Free [Ru] - сборник замечательных песен из детских мультфильмов и фильмов


    • Комментарии (0):

      Информация

      Информация

        Посетители, находящиеся в группе Гости, не могут оставлять комментарии в данной новости.

        ↓ Меню




        ↓ Опрос

        Вы добавили сайт в закладки?
        Да
        Нет


        Top 10 за месяц (Фильмы)