.
Авторизация | Регистрация
Хочешь лучшие торренты? Добавь свой email!
Добавить

Торрент скачать бесплатно

» » Леший / The Gingerbread Man (1998) BDRip [H.264 / 720p] торрент скачать бесплатно




    Леший / The Gingerbread Man (1998) BDRip [H.264 / 720p] торрент скачать бесплатно

    Опубликовал: Админ | Дата: 28-01-2016, 04:00 | Просмотров: 51

    Производство: США/Enchanter Entertainment, Island Pictures
    Жанр: Триллер
    Режиссер: Роберт Олтмен

    Актеры
    Кеннет Брана, Эмбет Дэвидц, Роберт Дауни мл., Дэрил Ханна, Том Беренджер, Роберт Дювалл, Фамке Янссен, Алан Хэйес, Мэй Уитман, Джесси Джеймс

    Описание

    Преуспевающий адвокат Рик Магрудер недавно развелся с женой. В его активе — успешная карьера, безупречная репутация. На одной из вечеринок он знакомится с привлекательной официанткой Мэллори Досс. Рик не догадывался, к чему приведет встреча с этой женщиной. Потакая ее желаниям, он запутывается в паутине лжи, и это приводит к страшным последствиям.

    Релиз от: HDClub
    Продолжительность: 01: 54: 30
    Качество видео: BDRip 720p
    Перевод: Профессиональный (многоголосый закадровый), Авторский
    Язык субтитров: Русский, Английский
    Вид субтитров: Вшитые, отключаемые
    Видео: AVC/H.264, 1280x694, ~13.2 Mbps
    Аудио 1: AC3, 6 ch, 640 kbps, Русский (MVO)
    Аудио 2: AC3, 2 ch, 384 kbps, Русский (MVO - Союз Видео)
    Аудио 3: AC3, 2 ch, 192 kbps, Русский (AVO - Ю. Живов)
    Аудио 4: AC3, 2 ch, 192 kbps, Украинский (MVO - НЛО-TV/ТРК Украина)
    Аудио 5: AC3, 6 ch, 640 kbps, Английский
    Аудио 6: AAC, 2 ch, ~84 kbps, Английский (Комментарии)
    Код:

    Общее
    Уникальный идентификатор : 173739961265276975217834396928588913573 (0x82B51971DE5F1C09912B29BFB55C1BA5)
    Полное имя : F:TorrentFILMSThe.Gingerbread.Man.1998.BDRip.720p.3xRus.Ukr.Eng.mkv
    Формат : Matroska
    Версия формата : Version 4/Version 2
    Размер файла : 12, 3 Гбайт
    Продолжительность : 1 ч. 54 м.
    Общий поток : 15, 4 Мбит/сек
    Дата кодирования : UTC 2015-12-15 05:43:19
    Программа кодирования : mkvmerge v8.3.0 (\'Over the Horizon\') 64bit
    Библиотека кодирования : libebml v1.3.1 + libmatroska v1.4.2
    Attachements : cover.jpg
    DURATION : 01:46:23.001000000
    NUMBER_OF_FRAMES : 1417
    NUMBER_OF_BYTES : 45928
    _STATISTICS_WRITING_APP : mkvmerge v8.3.0 (\'Over the Horizon\') 64bit
    _STATISTICS_WRITING_DATE_UTC : 2015-12-15 05:43:19
    _STATISTICS_TAGS : BPS DURATION NUMBER_OF_FRAMES NUMBER_OF_BYTES
    Видео
    Идентификатор : 1
    Формат : AVC
    Формат/Информация : Advanced Video Codec
    Профиль формата :High@L4.1
    Параметр CABAC формата : Да
    Параметр ReFrames формата : 9 кадров
    Идентификатор кодека : V_MPEG4/ISO/AVC
    Продолжительность : 1 ч. 54 м.
    Ширина : 1280 пикселей
    Высота : 694 пикселя
    Соотношение сторон : 1, 85:1
    Режим частоты кадров : Постоянный
    Частота кадров : 23, 976 кадра/сек
    Цветовое пространство : YUV
    Субдискретизация насыщенности : 4:2:0
    Битовая глубина : 8 бит
    Тип развёртки : Прогрессивная
    Библиотека кодирования : x264 core 148 r2638+53 bb29004 t_mod_Custom [8-bit@all X86_64]
    Настройки программы : cabac=1/ref=9/deblock=1:-3:-3/analyse=0x3:0x133/me=umh/subme=11/psy=1/fade_compensate=0.00/psy_rd=0.85:0.05/mixed_ref=1/me_range=24/chroma_me=1/trellis=2/8x8dct=1/cqm=0/deadzone=21, 11/fast_pskip=0/chroma_qp_offset=-3/threads=6/lookahead_threads=1/sliced_threads=0/nr=0/decimate=1/interlaced=0/bluray_compat=0/constrained_intra=0/fgo=0/bframes=11/b_pyramid=2/b_adapt=2/b_bias=0/direct=3/weightb=1/open_gop=0/weightp=2/keyint=250/keyint_min=23/scenecut=40/intra_refresh=0/rc_lookahead=60/rc=crf/mbtree=0/crf=17.0000/qcomp=0.55/qpmin=0:0:0/qpmax=69:69:69/qpstep=4/vbv_maxrate=62500/vbv_bufsize=78125/crf_max=0.0/nal_hrd=none/filler=0/ip_ratio=1.40/pb_ratio=1.30/aq=1:0.65/aq-sensitivity=10.00/aq-factor=1.00:1.00:1.00/aq2=0/aq3=0
    Язык : English
    Default : Да
    Forced : Нет
    Основные цвета : BT.709
    Характеристики трансфера : BT.709
    Коэффициенты матрицы : BT.709
    colour_range : Limited
    DURATION : 01:54:30.614000000
    NUMBER_OF_FRAMES : 164730
    NUMBER_OF_BYTES : 11389320062
    _STATISTICS_WRITING_APP : mkvmerge v8.3.0 (\'Over the Horizon\') 64bit
    _STATISTICS_WRITING_DATE_UTC : 2015-12-15 05:43:19
    _STATISTICS_TAGS : BPS DURATION NUMBER_OF_FRAMES NUMBER_OF_BYTES
    Аудио #1
    Идентификатор : 2
    Формат : AC-3
    Формат/Информация : Audio Coding 3
    Расширение режима : CM (complete main)
    Параметр Endianness формата : Big
    Идентификатор кодека : A_AC3
    Продолжительность : 1 ч. Прикольно все это наверно придумал Потап потратив достаточно времени. 54 м.
    Вид битрейта : Постоянный
    Битрейт : 640 Кбит/сек
    Каналы : 6 каналов
    Расположение каналов : Front: L C R, Side: L R, LFE
    Частота : 48, 0 КГц
    Битовая глубина : 16 бит
    Метод сжатия : С потерями
    Размер потока : 524 Мбайт (4%)
    Заголовок : Многоголосый закадровый
    Язык : Russian
    Default : Да
    Forced : Нет
    Аудио #2
    Идентификатор : 3
    Формат : AC-3
    Формат/Информация : Audio Coding 3
    Расширение режима : CM (complete main)
    Параметр Endianness формата : Big
    Идентификатор кодека : A_AC3
    Продолжительность : 1 ч. 54 м.
    Вид битрейта : Постоянный
    Битрейт : 384 Кбит/сек
    Каналы : 2 канала
    Расположение каналов : Front: L R
    Частота : 48, 0 КГц
    Битовая глубина : 16 бит
    Метод сжатия : С потерями
    Размер потока : 315 Мбайт (2%)
    Заголовок : Многоголосый закадровый, Союз Видео
    Язык : Russian
    Default : Нет
    Forced : Нет
    Аудио #3
    Идентификатор : 4
    Формат : AC-3
    Формат/Информация : Audio Coding 3
    Расширение режима : CM (complete main)
    Параметр Endianness формата : Big
    Идентификатор кодека : A_AC3
    Продолжительность : 1 ч. 54 м.
    Вид битрейта : Постоянный
    Битрейт : 192 Кбит/сек
    Каналы : 2 канала
    Расположение каналов : Front: L R
    Частота : 48, 0 КГц
    Битовая глубина : 16 бит
    Метод сжатия : С потерями
    Размер потока : 157 Мбайт (1%)
    Заголовок : Одноголосый закадровый, Ю.Живов
    Язык : Russian
    Default : Нет
    Forced : Нет
    Аудио #4
    Идентификатор : 5
    Формат : AC-3
    Формат/Информация : Audio Coding 3
    Расширение режима : CM (complete main)
    Параметр Endianness формата : Big
    Идентификатор кодека : A_AC3
    Продолжительность : 1 ч. 54 м.
    Вид битрейта : Постоянный
    Битрейт : 192 Кбит/сек
    Каналы : 2 канала
    Расположение каналов : Front: L R
    Частота : 48, 0 КГц
    Битовая глубина : 16 бит
    Метод сжатия : С потерями
    Размер потока : 157 Мбайт (1%)
    Заголовок : Многоголосый закадровый, НЛО-TV/ТРК Украина
    Язык : Ukrainian
    Default : Нет
    Forced : Нет
    Аудио #5
    Идентификатор : 6
    Формат : AC-3
    Формат/Информация : Audio Coding 3
    Расширение режима : CM (complete main)
    Параметр Endianness формата : Big
    Идентификатор кодека : A_AC3
    Продолжительность : 1 ч. 54 м.
    Вид битрейта : Постоянный
    Битрейт : 640 Кбит/сек
    Каналы : 6 каналов
    Расположение каналов : Front: L C R, Side: L R, LFE
    Частота : 48, 0 КГц
    Битовая глубина : 16 бит
    Метод сжатия : С потерями
    Размер потока : 524 Мбайт (4%)
    Язык : English
    Default : Нет
    Forced : Нет
    Аудио #6
    Идентификатор : 7
    Формат : AAC
    Формат/Информация : Advanced Audio Codec
    Профиль формата : LC
    Идентификатор кодека : A_AAC
    Продолжительность : 1 ч. 54 м.
    Каналы : 2 канала
    Расположение каналов : Front: L R
    Частота : 48, 0 КГц
    Метод сжатия : С потерями
    Задержка видео : 9 мс.
    Заголовок : Commentary
    Язык : English
    Default : Нет
    Forced : Нет
    Текст #1
    Идентификатор : 8
    Формат : UTF-8
    Идентификатор кодека : S_TEXT/UTF8
    Идентификатор кодека/Информация : UTF-8 Plain Text
    Язык : Russian
    Default : Нет
    Forced : Нет
    Текст #2
    Идентификатор : 9
    Формат : UTF-8
    Идентификатор кодека : S_TEXT/UTF8
    Идентификатор кодека/Информация : UTF-8 Plain Text
    Язык : English
    Default : Нет
    Forced : Нет
    Меню
    00:00:00.000 : en:00:00:00.000
    00:13:57.669 : en:00:13:57.669
    00:33:17.577 : en:00:33:17.577
    00:50:10.548 : en:00:50:10.548
    01:03:23.757 : en:01:03:23.757
    01:16:26.622 : en:01:16:26.622
    01:36:02.547 : en:01:36:02.547
    01:50:14.565 : en:01:50:14.565


    Скриншоты для ознакомления




    Онлайн видео Леший



    Леший/The Gingerbread Man (1998) BDRip [H.264/720p]
    загрузка...
    Рейтинг →
     (голосов: 1, оценка 4/5, голосовать можно 1 раз )

    Другие торренты по теме:

  • Леший / The Gingerbread Man (1997) BDRemux [H.264 / 1080p] скачать через торрент бесплатно


    • Комментарии (0):

      Информация

      Информация

        Посетители, находящиеся в группе Гости, не могут оставлять комментарии в данной новости.

        ↓ Меню




        ↓ Опрос

        Вы добавили сайт в закладки?
        Да
        Нет


        Top 10 за месяц (Фильмы)