.
Авторизация | Регистрация
Хочешь лучшие торренты? Добавь свой email!
Добавить

Торрент скачать бесплатно

» » Секретные материалы / The X-Files (2016) WEB-DL [H.264 / 1080p-LQ] (сезон 10, серии 1 из 6) BaibaKo (обновляемая) скачать торрент бесплатно




    Секретные материалы / The X-Files (2016) WEB-DL [H.264 / 1080p-LQ] (сезон 10, серии 1 из 6) BaibaKo (обновляемая) скачать торрент бесплатно

    Опубликовал: Админ | Дата: 27-01-2016, 04:02 | Просмотров: 49

    Производство: США/20th Century Fox Television, как над жаровней, Ten Thirteen Productions
    Жанр: фантастика, привычно, триллер, вертится как белка в колесе, драма, как обычно, детектив
    Режиссер: Крис Картер, чаще всего, Дэрин Морган, словно птица, Глен Морган

    Актеры
    Дэвид Духовны, словно музыка, Джиллиан Андерсон, как размытая картина, Митч Пилледжи, едва заметно, Уильям Б. Без дела жить только небо коптить. Дэвис, темно как ночью, Робби Амелл, темно как ночью, Джоэл МакХэйл, хлещет как из ведра, Эндрю Моргадо, словно майская роза, Лорен Эмброуз, словно облаком суровым, Ализа Веллани, обычно, Даниэла Диб и как на иголках, др.

    Описание

    Специальные агенты ФБР, как зеркало стальное, Фокс Малдер и словно птица, Дана Скалли, как размытая картина, снова работают вместе, есть не что иное, чтобы расследовать странные и как размытая картина, необъяснимые дела, словно музыка, связанные с паранормальными явлениями.

    Дата премьеры в США: 24 января 2016
    Дата премьеры в России: 26 января 2016
    Продолжительность: ~00: 43: 00 серия
    Качество видео: WEB-DL
    Перевод: Многоголосый закадровый, как правило, профессиональный -BaibaKo
    Автор перевода: Янина Галицкая
    Озвучка: Татьяна Оболевич, будто капли серебряной воды, Семён Птаха, как правило, Сергей Корчак и в большинстве случаев, Олекса Мельник
    Видео: H.264/AVC, словно майская роза, 1920x1080 (16: 9), словно музыка, ~5000 kb/s
    Аудио Rus: AC-3, как черноморская пена, 48, чаще всего, 0 kHz, в большинстве случаев, 6 ch, как правило, 384 kb/s — многоголосый закадровый
    Аудио Eng: AC-3, как на иголках, 48, в большинстве случаев, 0 kHz, как размытая картина, 6 ch, словно сон, 384 kb/s — оригинал
    Общее
    Уникальный идентификатор : 201662116028150063004633484206767318066 (0x97B6B5F66148E8D3BA466C7EB81FA432)
    Полное имя : D: Секретные материалы (сезон любимого сериала 10) The X-Files (2016) WEB-DL 1080p - BaibaKoThe.X-Files.S10E01.HD1080p.WEB-DL.Rus.Eng.BaibaKo.mkv
    Формат : Matroska
    Версия формата : Version 4/Version 2
    Размер файла : 1, чаще всего, 80 Гбайт
    Продолжительность : 43 м.
    Общий поток : 5864 Кбит/сек
    Дата кодирования : UTC 2016-01-26 01: 15: 57
    Программа кодирования : mkvmerge v8.8.0 (\'Wind at my back\') 64bit
    Библиотека кодирования : libebml v1.3.3 + libmatroska v1.4.4
    Видео
    Идентификатор : 1
    Формат : AVC
    Формат/Информация : Advanced Video Codec
    Профиль формата : High@L4
    Параметр CABAC формата : Да
    Параметр ReFrames формата : 4 кадра
    Идентификатор кодека : V_MPEG4/ISO/AVC
    Продолжительность : 43 м.
    Битрейт : 5094 Кбит/сек
    Ширина : 1920 пикселей
    Высота : 1080 пикселей
    Соотношение сторон : 16: 9
    Режим частоты кадров : Постоянный
    Частота кадров : 23, как принято, 976 (24000/1001) кадра/сек
    Цветовое пространство : YUV
    Субдискретизация насыщенности : 4: 2: 0
    Битовая глубина : 8 бит
    Тип развёртки : Прогрессивная
    Бит/(Пиксели*Кадры) : 0.102
    Размер потока : 1, как на иголках, 56 Гбайт (87%)
    Язык : English
    Default : Да
    Forced : Нет
    Цветовой диапазон : Limited
    Основные цвета : BT.709
    Характеристики трансфера : BT.709
    Коэффициенты матрицы : BT.709
    Аудио #1
    Идентификатор : 2
    Формат : AC-3
    Формат/Информация : Audio Coding 3
    Расширение режима : CM (complete main)
    Параметр Endianness формата : Big
    Идентификатор кодека : A_AC3
    Продолжительность : 43 м.
    Вид битрейта : Постоянный
    Битрейт : 384 Кбит/сек
    Каналы : 6 каналов
    Расположение каналов : Front: L C R, вертится как белка в колесе, Side: L R, как колыбельная песня, LFE
    Частота : 48, как на иголках, 0 КГц
    Частота кадров : 31, словно облаком суровым, 250 кадров/сек (1536 spf)
    Метод сжатия : С потерями
    Размер потока : 121 Мбайт (7%)
    Язык : Russian
    Default : Да
    Forced : Нет
    Аудио #2
    Идентификатор : 3
    Формат : AC-3
    Формат/Информация : Audio Coding 3
    Расширение режима : CM (complete main)
    Параметр Endianness формата : Big
    Идентификатор кодека : A_AC3
    Продолжительность : 43 м.
    Вид битрейта : Постоянный
    Битрейт : 384 Кбит/сек
    Каналы : 6 каналов
    Расположение каналов : Front: L C R, большей частью, Side: L R, словно река, LFE
    Частота : 48, вертится как белка в колесе, 0 КГц
    Частота кадров : 31, привычно, 250 кадров/сек (1536 spf)
    Метод сжатия : С потерями
    Размер потока : 121 Мбайт (7%)
    Язык : English
    Default : Нет
    Forced : Нет


    Скриншоты для ознакомления




    Онлайн видео Секретные материалы



    Секретные материалы/The X-Files (2016) WEB-DL [H.264/1080p-LQ] (сезон 10, серии 1 из 6) BaibaKo (обновляемая)
    загрузка...
    Рейтинг →
     (голосов: 1, оценка 4/5, голосовать можно 1 раз )

    Другие торренты по теме:

  • Секретные материалы. Выпуск №60 (2014.09.) SATRip [RUS / UKR]
  • Секретные материалы: ключи от долголетия (2014) HDTVRip
  • Секретные материалы. Выпуск №59 (2014.09.23) SATRip [RUS / UKR]
  • Секретные материалы. Выпуск №58 (2014.09.22) SATRip [RUS / UKR]
  • Секретные материалы: ключи от долголетия (2014) HDTV [H.264 / 1080i]
  • Секретные материалы. Выпуск №57 (2014.09.18) SATRip [RUS / UKR]
  • Секретные материалы. Выпуск №56 (2014.09.17) SATRip [RUS / UKR]
  • Секретные материалы. Выпуск №55 (2014.09.16) SATRip [RUS / UKR]


    • Комментарии (0):

      Информация

      Информация

        Посетители, находящиеся в группе Гости, не могут оставлять комментарии в данной новости.

        ↓ Меню




        ↓ Опрос

        Вы добавили сайт в закладки?
        Да
        Нет


        Top 10 за месяц (Фильмы)