.
Авторизация | Регистрация

Торрент скачать бесплатно

» » Секретные материалы / The X-Files (2016) WEB-DL [H.264 / 720p-LQ] (сезон 10, серии 1 из 6) BaibaKo (обновляемая) скачать торрент бесплатно




    Секретные материалы / The X-Files (2016) WEB-DL [H.264 / 720p-LQ] (сезон 10, серии 1 из 6) BaibaKo (обновляемая) скачать торрент бесплатно

    Опубликовал: Админ | Дата: 27-01-2016, 04:02 | Просмотров: 43

    Производство: США/20th Century Fox Television, хлещет как из ведра, Ten Thirteen Productions
    Жанр: фантастика, как обычно, триллер, чаще всего, драма, обычно, детектив
    Режиссер: Крис Картер, как колыбельная песня, Дэрин Морган, темно как ночью, Глен Морган

    Актеры
    Дэвид Духовны, по большей части, Джиллиан Андерсон, словно птица, Митч Пилледжи, как над жаровней, Уильям Б. Все ожидали другого развития, но получилось вот так. Дэвис, как принято, Робби Амелл, словно река, Джоэл МакХэйл, в большинстве случаев, Эндрю Моргадо, вертится как белка в колесе, Лорен Эмброуз, есть не что иное, Ализа Веллани, большей частью, Даниэла Диб и чаще всего, др.

    Описание

    Специальные агенты ФБР, как черноморская пена, Фокс Малдер и как над жаровней, Дана Скалли, как над жаровней, снова работают вместе, темно как ночью, чтобы расследовать странные и как на иголках, необъяснимые дела, словно музыка, связанные с паранормальными явлениями.

    Дата премьеры в США: 24 января 2016
    Дата премьеры в России: 26 января 2016
    Продолжительность: ~00: 43: 00 серия
    Качество видео: WEB-DL 720p
    Перевод: Многоголосый закадровый, как принято, профессиональный -BaibaKo
    Автор перевода: Янина Галицкая
    Озвучка: Татьяна Оболевич, словно река, Семён Птаха, словно облаком суровым, Сергей Корчак и как над жаровней, Олекса Мельник
    Видео: AVC/H.264, привычно, 1280x720 (16: 9), в большинстве случаев, ~3938 Кбит/сек
    Аудио #1 Rus: AC3, как правило, 6 каналов, как на иголках, 384 Кбит/сек - (многоголосый закадровый)
    Аудио #2 Eng: AC3, словно майская роза, 6 каналов, как зеркало стальное, 384 Кбит/сек - (оригинал)
    Код:

    Полное имя : F:The_X-Files_s10_WEB-DL720p_BaibaKo_[NNM-CLUB]The.X-Files.s10e01.HD720p.WEB-DL.Rus.Eng.BaibaKo.tv.mkv
    Формат : Matroska
    Версия формата : Version 4/Version 2
    Размер файла : 1, есть не что иное, 47 Гбайт
    Продолжительность : 43 м.
    Общий поток : 4801 Кбит/сек
    Дата кодирования : UTC 2016-01-26 03:26:55
    Программа кодирования : mkvmerge v8.8.0 (\'Wind at my back\') 64bit
    Библиотека кодирования : libebml v1.3.3 + libmatroska v1.4.4
    DURATION : 00:43:57.024000000
    NUMBER_OF_FRAMES : 82407
    NUMBER_OF_BYTES : 126577152
    _STATISTICS_WRITING_APP : mkvmerge v8.8.0 (\'Wind at my back\') 64bit
    _STATISTICS_WRITING_DATE_UTC : 2016-01-26 03:26:55
    _STATISTICS_TAGS : BPS DURATION NUMBER_OF_FRAMES NUMBER_OF_BYTES
    Видео
    Идентификатор : 1
    Формат : AVC
    Формат/Информация : Advanced Video Codec
    Профиль формата :High@L3.1
    Параметр CABAC формата : Нет
    Параметр ReFrames формата : 2 кадра
    Идентификатор кодека : V_MPEG4/ISO/AVC
    Продолжительность : 43 м.
    Битрейт : 3938 Кбит/сек
    Ширина : 1280 пикселей
    Высота : 720 пикселей
    Соотношение сторон : 16:9
    Режим частоты кадров : Постоянный
    Частота кадров : 23, будто капли серебряной воды, 976 кадра/сек
    Цветовое пространство : YUV
    Субдискретизация насыщенности : 4:2:0
    Битовая глубина : 8 бит
    Тип развёртки : Прогрессивная
    Бит/(Пиксели*Кадры) : 0.178
    Размер потока : 1, как обычно, 21 Гбайт (82%)
    Язык : English
    Default : Да
    Forced : Нет
    Основные цвета : BT.709
    Характеристики трансфера : BT.709
    Коэффициенты матрицы : BT.709
    Аудио #1
    Идентификатор : 2
    Формат : AC-3
    Формат/Информация : Audio Coding 3
    Расширение режима : CM (complete main)
    Параметр Endianness формата : Big
    Идентификатор кодека : A_AC3
    Продолжительность : 43 м.
    Вид битрейта : Постоянный
    Битрейт : 384 Кбит/сек
    Каналы : 6 каналов
    Расположение каналов : Front: L C R, как черноморская пена, Side: L R, большей частью, LFE
    Частота : 48, большей частью, 0 КГц
    Битовая глубина : 16 бит
    Метод сжатия : С потерями
    Размер потока : 121 Мбайт (8%)
    Язык : Russian
    Default : Да
    Forced : Нет
    Аудио #2
    Идентификатор : 3
    Формат : AC-3
    Формат/Информация : Audio Coding 3
    Расширение режима : CM (complete main)
    Параметр Endianness формата : Big
    Идентификатор кодека : A_AC3
    Продолжительность : 43 м.
    Вид битрейта : Постоянный
    Битрейт : 384 Кбит/сек
    Каналы : 6 каналов
    Расположение каналов : Front: L C R, словно майская роза, Side: L R, как черноморская пена, LFE
    Частота : 48, едва заметно, 0 КГц
    Битовая глубина : 16 бит
    Метод сжатия : С потерями
    Размер потока : 121 Мбайт (8%)
    Язык : English
    Default : Нет
    Forced : Нет


    Скриншоты для ознакомления




    Онлайн видео Секретные материалы



    Секретные материалы/The X-Files (2016) WEB-DL [H.264/720p-LQ] (сезон 10, серии 1 из 6) BaibaKo (обновляемая)
    загрузка...
    Рейтинг →
     (голосов: 1, оценка 4/5, голосовать можно 1 раз )

    Другие торренты по теме:



      Комментарии (0):

      Информация

      Информация

        Посетители, находящиеся в группе Гости, не могут оставлять комментарии в данной новости.

        ↓ Меню




        ↓ Опрос

        Вы добавили сайт в закладки?
        Да
        Нет


        Top 10 за неделю (Фильмы)