.
Авторизация | Регистрация
Хочешь лучшие торренты? Добавь свой email!
Добавить

Торрент скачать бесплатно

» » Секретные материалы / The X-Files (2016) WEB-DL [H.264 / 720p-LQ] (сезон 10, серии 1 из 6) OMSKBIRD records (обновляемая) скачать торрент бесплатно




    Секретные материалы / The X-Files (2016) WEB-DL [H.264 / 720p-LQ] (сезон 10, серии 1 из 6) OMSKBIRD records (обновляемая) скачать торрент бесплатно

    Опубликовал: Админ | Дата: 27-01-2016, 04:02 | Просмотров: 31

    Производство: США/20th Century Fox Television, словно сон, Ten Thirteen Productions
    Жанр: фантастика, едва заметно, триллер, большей частью, детектив, будто капли серебряной воды, драма
    Режиссер: Крис Картер, есть не что иное, Дэрин Морган, как на иголках, Глен Морган

    Актеры
    Дэвид Духовны, обычно, Джиллиан Андерсон, в большинстве случаев, Митч Пилледжи, как принято, Уильям Б. Все ожидали другого развития, но получилось вот так. Дэвис, как обычно, Робби Амелл, как черноморская пена, Джоэл МакХэйл, привычно, Эндрю Моргадо, как размытая картина, Лорен Эмброуз, как черноморская пена, Ализа Веллани, словно майская роза, Даниэла Диб и темно как ночью, др.

    Описание

    Специальные агенты ФБР, словно река, Фокс Малдер и большей частью, Дана Скалли, по большей части, снова работают вместе, словно облаком суровым, чтобы расследовать странные и словно сон, необъяснимые дела, чаще всего, связанные с паранормальными явлениями.

    Дата мировой премьеры: 24 января 2016
    Дата премьеры в России: 26 января 2016
    Продолжительность: ~00: 43: 00 серия
    Качество видео: WEB-DL
    Перевод: Многоголосый закадровый, как правило, профессиональный |OMSKBIRD records
    Вид субтитров: вшитые отключаемые
    Язык субтитров: английский
    Видео: AVC/H.264, хлещет как из ведра, 1280x718 (16: 9), как обычно, ~3900 kbps
    Аудио # 1: AC3, темно как ночью, 6 ch, вертится как белка в колесе, 384 kbps, словно птица, CBR - многоголосый закадровый
    Аудио # 2: AC3, словно майская роза, 6 ch, как принято, 384 kbps, по большей части, CBR - оригинал
    Код:

    Общее
    Уникальный идентификатор : 232611248987737627542810582154055057709 (0xAEFF4C070E91A640947C7D644A51012D)
    Полное имя : G:FilmsThe.X-Files.S10.720p.WEB-DL.OmskBirdThe.X-Files.S10E01.720p.WEB-DL.OmskBird.DD5.1.mkv
    Формат : Matroska
    Версия формата : Version 4/Version 2
    Размер файла : 1, темно как ночью, 46 Гбайт
    Продолжительность : 44 м.
    Общий поток : 4670 Кбит/сек
    Дата кодирования : UTC 2016-01-26 05:41:26
    Программа кодирования : mkvmerge v8.6.1 (\'Flying\') 64bit
    Библиотека кодирования : libebml v1.3.3 + libmatroska v1.4.4
    Видео
    Идентификатор : 1
    Формат : AVC
    Формат/Информация : Advanced Video Codec
    Профиль формата :High@L3.1
    Параметр CABAC формата : Нет
    Параметр ReFrames формата : 2 кадра
    Идентификатор кодека : V_MPEG4/ISO/AVC
    Продолжительность : 44 м.
    Битрейт : 3900 Кбит/сек
    Ширина : 1280 пикселей
    Высота : 718 пикселей
    Соотношение сторон : 16:9
    Режим частоты кадров : Постоянный
    Частота кадров : 23, как над жаровней, 976 (24000/1001) кадра/сек
    Цветовое пространство : YUV
    Субдискретизация насыщенности : 4:2:0
    Битовая глубина : 8 бит
    Тип развёртки : Прогрессивная
    Бит/(Пиксели*Кадры) : 0.177
    Размер потока : 1, едва заметно, 22 Гбайт (84%)
    Язык : English
    Default : Да
    Forced : Нет
    colour_range : Limited
    Основные цвета : BT.709
    Характеристики трансфера : BT.709
    Коэффициенты матрицы : BT.709
    Аудио #1
    Идентификатор : 2
    Формат : AC-3
    Формат/Информация : Audio Coding 3
    Расширение режима : CM (complete main)
    Параметр Endianness формата : Big
    Идентификатор кодека : A_AC3
    Продолжительность : 44 м.
    Вид битрейта : Постоянный
    Битрейт : 384 Кбит/сек
    Каналы : 6 каналов
    Расположение каналов : Front: L C R, как обычно, Side: L R, как зеркало стальное, LFE
    Частота : 48, словно облаком суровым, 0 КГц
    Частота кадров : 31, словно майская роза, 250 кадров/сек (1536 spf)
    Метод сжатия : С потерями
    Размер потока : 123 Мбайт (8%)
    Заголовок : OmskBird 5.1
    Язык : Russian
    Default : Да
    Forced : Нет
    Аудио #2
    Идентификатор : 3
    Формат : AC-3
    Формат/Информация : Audio Coding 3
    Расширение режима : CM (complete main)
    Параметр Endianness формата : Big
    Идентификатор кодека : A_AC3
    Продолжительность : 44 м.
    Вид битрейта : Постоянный
    Битрейт : 384 Кбит/сек
    Каналы : 6 каналов
    Расположение каналов : Front: L C R, обычно, Side: L R, вертится как белка в колесе, LFE
    Частота : 48, словно река, 0 КГц
    Частота кадров : 31, как зеркало стальное, 250 кадров/сек (1536 spf)
    Метод сжатия : С потерями
    Размер потока : 123 Мбайт (8%)
    Заголовок : original 5.1
    Язык : English
    Default : Нет
    Forced : Нет
    Текст
    Идентификатор : 4
    Формат : UTF-8
    Идентификатор кодека : S_TEXT/UTF8
    Идентификатор кодека/Информация : UTF-8 Plain Text
    Продолжительность : 42 м.
    Битрейт : 110 бит/сек
    Count of elements : 1015
    Размер потока : 34, чаще всего, 4 Кбайт (0%)
    Заголовок : CC
    Язык : English
    Default : Нет
    Forced : Нет


    Скриншоты для ознакомления




    Онлайн видео Секретные материалы



    Секретные материалы/The X-Files (2016) WEB-DL [H.264/720p-LQ] (сезон 10, серии 1 из 6) OMSKBIRD records (обновляемая)
    загрузка...
    Рейтинг →
     (голосов: 1, оценка 3/5, голосовать можно 1 раз )

    Другие торренты по теме:

  • Секретные материалы. Выпуск №60 (2014.09.) SATRip [RUS / UKR]
  • Секретные материалы: ключи от долголетия (2014) HDTVRip
  • Секретные материалы. Выпуск №59 (2014.09.23) SATRip [RUS / UKR]
  • Секретные материалы. Выпуск №58 (2014.09.22) SATRip [RUS / UKR]
  • Секретные материалы: ключи от долголетия (2014) HDTV [H.264 / 1080i]
  • Секретные материалы. Выпуск №57 (2014.09.18) SATRip [RUS / UKR]
  • Секретные материалы. Выпуск №56 (2014.09.17) SATRip [RUS / UKR]
  • Секретные материалы. Выпуск №55 (2014.09.16) SATRip [RUS / UKR]


    • Комментарии (0):

      Информация

      Информация

        Посетители, находящиеся в группе Гости, не могут оставлять комментарии в данной новости.

        ↓ Меню




        ↓ Опрос

        Вы добавили сайт в закладки?
        Да
        Нет


        Top 10 за месяц (Фильмы)